Results 1 to 1 of 1
  1. #1
    shawn rebecca
    Guest

    Default TNA.Impact.Wrestling.05.26.2011.Siterip.Xvid.316

    Follow us on Social Media







    TNA.Impact.Wrestling.05.26.2011.Siterip.Xvid.316



    Format : AVI
    Format/Info : Audio Video Interleave
    File size : 388 MiB
    Duration : 1h 18mn
    Overall bit rate : 694 Kbps

    Video
    ID : 0
    Format : MPEG-4 Visual
    Format profile : [email protected]
    Format settings, BVOP : No
    Format settings, QPel : No
    Format settings, GMC : No warppoints
    Format settings, Matrix : Default (H.263)
    Codec ID : XVID
    Codec ID/Hint : XviD
    Duration : 1h 18mn
    Bit rate : 558 Kbps
    Width : 480 pixels
    Height : 352 pixels
    Display aspect ratio : 4:3
    Frame rate : 30.000 fps
    Color space : YUV
    Chroma subsampling : 4:2:0
    Bit depth : 8 bits
    Scan type : Progressive
    Compression mode : Lossy
    Bits/(Pixel*Frame) : 0.110
    Stream size : 312 MiB (80%)
    Writing library : ZJMedia MPEG Encoder

    Audio
    ID : 1
    Format : MPEG Audio
    Format version : Version 1
    Format profile : Layer 3
    Mode : Joint stereo
    Mode extension : MS Stereo
    Codec ID : 55
    Codec ID/Hint : MP3
    Duration : 1h 18mn
    Bit rate mode : Constant
    Bit rate : 128 Kbps
    Channel(s) : 2 channels
    Sampling rate : 44.1 KHz
    Compression mode : Lossy
    Stream size : 71.4 MiB (18%)
    Alignment : Split accross interleaves
    Interleave, duration : 1000 ms (30.00 video frames)
    Code:
    http://www.fileserve.com/file/kWXAv4x/TNA.Impact.Wrestling.05.26.2011.Siterip.Xvid.316.AVI
    Code:
    http://www.filesonic.com/file/1079029784/TNA.Impact.Wrestling.05.26.2011.Siterip.Xvid.316.AVI

 

 

Posting Permissions

  • You may not post new threads
  • You may not post replies
  • You may not post attachments
  • You may not edit your posts
  •