Results 1 to 1 of 1
  1. #1
    Senior Member www.desirulez.net
    Join Date
    Dec 2010
    Posts
    104

    T

    Default [Duckload DDL] WWE Over The Limit 5/22/2011 HDTV WMV

    Follow us on Social Media







    Code:
    Overall bit rate mode            : Constant
    Overall bit rate                 : 1 311 Kbps
    Maximum Overall bit rate         : 1 342 Kbps
    Encoded date                     : UTC 2011-05-23 00:00:34.909
    
    Video
    ID                               : 2
    Format                           : VC-1
    Format profile                   : [email protected]
    Codec ID                         : WMV3
    Codec ID/Info                    : Windows Media Video 9
    Codec ID/Hint                    : WMV3
    Description of the codec         : Windows Media Video 9
    Bit rate mode                    : Constant
    Bit rate                         : 1 200 Kbps
    Width                            : 640 pixels
    Height                           : 368 pixels
    Display aspect ratio             : 16:9
    Frame rate                       : 30.029 fps
    Bit depth                        : 8 bits
    Scan type                        : Progressive
    Compression mode                 : Lossy
    Bits/(Pixel*Frame)               : 0.170
    Stream size                      : 42.6 MiB (92%)
    Language                         : English (US)
    
    Audio
    ID                               : 1
    Format                           : WMA
    Format version                   : Version 2
    Codec ID                         : 161
    Codec ID/Info                    : Windows Media Audio
    Description of the codec         : Windows Media Audio 9.2 - 128 kbps, 44 kHz, stereo 1-pass CBR
    Bit rate mode                    : Constant
    Bit rate                         : 128 Kbps
    Channel(s)                       : 2 channels
    Sampling rate                    : 44.1 KHz
    Bit depth                        : 16 bits
    Stream size                      : 4.54 MiB (10%)
    Language                         : English (US)





    █ NO PASSWORD █ SINGLE EXTRACTION █ 400 MB INTERCHANGABLE LINKS

    DoWnLoAd

    &

    Enjoy~

    Duckload DDL

    Code:
    http://www.duckload.com/download/5964358/overthelimit.wmv
    Last edited by simmer; 05-23-2011 at 12:14 PM.

 

 

Posting Permissions

  • You may not post new threads
  • You may not post replies
  • You may not post attachments
  • You may not edit your posts
  •