Results 1 to 1 of 1
  1. #1
    dR Rockers www.desirulez.net
    Join Date
    Feb 2010
    Posts
    86

    T

    Post Ragini MMS(2011) DVD Scr Rip XviD-[400MB]

    Follow us on Social Media









    Ragini MMS -2011- 400MB DVD Scr Rip XviD





    Code:
    Format                           : MPEG-4
    Format profile                   : Base Media / Version 2
    Codec ID                         : mp42
    File size                        : 404 MiB
    Duration                         : 1h 32mn
    Overall bit rate                 : 613 Kbps
    
    Video
    ID                               : 1
    Format                           : AVC
    Format/Info                      : Advanced Video Codec
    Format profile                   : [email protected]
    Format settings, CABAC           : Yes
    Format settings, ReFrames        : 4 frames
    Codec ID                         : avc1
    Codec ID/Info                    : Advanced Video Coding
    Duration                         : 1h 32mn
    Bit rate mode                    : Variable
    Bit rate                         : 443 Kbps
    Width                            : 688 pixels
    Height                           : 304 pixels
    Display aspect ratio             : 2.25:1
    Frame rate mode                  : Variable
    Frame rate                       : 24.988 fps
    Minimum frame rate               : 2.083 fps
    Maximum frame rate               : 25.000 fps
    Color space                      : YUV
    Chroma subsampling               : 4:2:0
    Bit depth                        : 8 bits
    Scan type                        : Progressive
    Bits/(Pixel*Frame)               : 0.085
    Stream size                      : 296 MiB (73%)
    Writing library                  : x264 core 112
    
    
    Audio
    ID                               : 2
    Format                           : AAC
    Format/Info                      : Advanced Audio Codec
    Format profile                   : LC
    Codec ID                         : 40
    Duration                         : 1h 32mn
    Bit rate mode                    : Variable
    Bit rate                         : 160 Kbps
    Maximum bit rate                 : 221 Kbps
    Channel(s)                       : 2 channels
    Channel positions                : Front: L R
    Sampling rate                    : 48.0 KHz
    Compression mode                 : Lossy
    Stream size                      : 105 MiB (26%)
    Encoded date                     : UTC 2011-05-22 13:32:57
    Tagged date                      : UTC 2011-05-22 13:51:40












    Code:
    http://www.fileserve.com/file/WdtDMXR/Ragini.MMS.2011.DVDScr.Rip.400MB_dayn.org_.rar
    
    OR
    
    http://www.filesonic.com/file/1054296094/Ragini.MMS.2011.DVDScr.Rip.400MB_dayn.org_.rar

 

 

Posting Permissions

  • You may not post new threads
  • You may not post replies
  • You may not post attachments
  • You may not edit your posts
  •