Results 1 to 4 of 4
  1. #1
    dR Dazzler www.desirulez.net
    Join Date
    Mar 2009
    Posts
    1,518

    T

    Default WWE.Smackdown.05.20.11.PDTV.x264.360p.NO1/300MB

    Follow us on Social Media







    WWE.Smackdown.05.20.11.PDTV.x264.360p.NO1




    Code:
            WWE SMACKDOWN 05.20.11 PDTV 360p x264 NO1
       ____________________________________________________________________
    
       Size...........: 846 MB
       Container......: mp4
       Resolution.....: 640 x 360
       Codec..........: h264 @ 1200 kbps
       Audio.Codec....: aac @ 128 kbps
       Runtime........: 1:28:37


    Code:
    http://bitshare.com/files/ar06j4zm/WWE.Smackdown.05.20.11.NO1.mp4.html
    Code:
    http://www.filesonic.com/file/1043481844/WWE.Smackdown.05.20.11.NO1.mp4
    Code:
    http://www.fileserve.com/file/HpRpNPd
    Code:
    http://www.wupload.com/file/1489482
    Last edited by Problem; 05-20-2011 at 08:23 PM.

  2. #2
    New Arrivals
    Join Date
    Apr 2011
    Posts
    6

    T

    Default hi

    thnks for rip ......

  3. #3
    Banned
    Join Date
    May 2011
    Posts
    6

    T

    Default

    thanks keep it up

  4. #4
    dR Dazzler www.desirulez.net
    Join Date
    Mar 2009
    Posts
    1,518

    T

    Default

    WWE Smackdown 20 05 11 AAC 300MB-Anonymous




    Code:
     Duration: 01:28:30.86, start: 0.000000, bitrate: 463 kb/s
        Stream #0.0: Audio: cook, 44100 Hz, stereo, s16, 64 kb/s
        Stream #0.1: Video: rv40, yuv420p, 640x360, 382 kb/s, 12.05 fps, 12 tbr, 1k tbn, 12 tbc
    Code:
    http://www.fileserve.com/file/KUUUR5t/WWE.Smackdown.20.05.11.AAC.300MB.rmvb
    Code:
    http://www.wupload.com/file/1527791
    Code:
    http://www.filesonic.com/file/1045192534/WWE.Smackdown.20.05.11.AAC.300MB.rmvb
    Last edited by Problem; 05-20-2011 at 08:22 PM.

 

 

Posting Permissions

  • You may not post new threads
  • You may not post replies
  • You may not post attachments
  • You may not edit your posts
  •