Results 1 to 2 of 2
  1. #1

    Thumbs up 3Idiots 3D BDRIP 720P LR x264 AC3 ESUB Striker WBZ

    Follow us on Social Media









    Code:
    This is a 2D to 3D conversion using Side By Side Left/Right Technic.
    
    
    - PC & Mac
    Plays with Stereoscopic Player (Shareware)
    Nvidia Stereoscopic Player (free)
    ArcSoft TotalMedia
    PowerDVD 10 Ultra Mark II
    
    
    - TV
    Compatible with 3D TVs and 3D-Ready TVs that can play SBS (mostly all).
    (Click on 3D button on remote and Chose Side By Side Left / Right when inputing this file)
    
    
    General
    
    3D Specs : 2D to 3D with Side By Side Left-Right Images
    Format : MKV
    File size : 2.50 GiB
    Duration : 2h 51mn
    Overall bit rate : 2091 Kbps
    
    
    VIDEO
    ID : 1
    Format : AVC
    Format/Info : Advanced Video Codec
    Format profile : [email protected]
    Format settings, CABAC : Yes
    Format settings, ReFrames : 1 frame
    Codec ID : V_MPEG4/ISO/AVC
    Duration : 2h 51mn
    Bit rate : 1 634 Kbps
    Width : 2 560 pixels
    Height : 720 pixels
    Display aspect ratio : 3.556
    Frame rate : 24.000 fps
    Color space : YUV
    Chroma subsampling : 4:2:0
    Bit depth : 8 bits
    Scan type : Progressive
    Bits/(Pixel*Frame) : 0.037
    Stream size : 1.91 GiB (77%)
    Writing library : x264 core 114 r1924 08d04a4
    Encoding settings : cabac=1 / ref=1 / deblock=1:0:0 / analyse=0x1:0x111 / me=hex / subme=5 / psy=1 / psy_rd=0.00:0.00 / mixed_ref=0 / me_range=16 / chroma_me=1 / trellis=0 / 8x8!!!=0 / cqm=0 / dead!!!!=21,11 / fast_pskip=1 / chroma_qp_offset=0 / threads=3 / sliced_threads=0 / nr=0 / decimate=1 / interlaced=0 / constrained_intra=0 / bframes=0 / weightp=2 / keyint=250 / keyint_min=24 / scenecut=40 / intra_refresh=0 / rc_lookahead=40 / rc=abr / mbtree=1 / bitrate=1634 / ratetol=1.0 / qcomp=0.60 / qpmin=10 / qpmax=51 / qpstep=4 / ip_ratio=1.40 / aq=1:1.00
    Language : English
    
    
    AUDIO
    ID : 2
    Format : AC-3
    Format/Info : Audio Coding 3
    Mode extension : CM (complete main)
    Codec ID : A_AC3
    Duration : 2h 51mn
    Bit rate mode : Constant
    Bit rate : 448 Kbps
    Channel(s) : 6 channels
    Channel positions : Front: L C R, Side: L R, LFE
    Sampling rate : 48.0 KHz
    Bit depth : 16 bits
    Compression mode : Lossy
    Stream size : 548 MiB (21%)
    Title : Striker[WBZ]
    Language : Hindi










    Single links:
    Code:
    http://www.filesonic.com/file/1005260404/3Idiots 3D BDRIP 720P LR X264 AC3 ESUB Striker WBZ.mkv
    http://www.duckload.com/download/5758717/3Idiots_3D_BDRIP_720P_LR_X264_AC3_ESUB_Striker_WBZ.mkv
    Fileserve:
    Code:
    http://www.fileserve.com/file/Vj7AtWr/3Idiots.3D.2010.Bluray.720p.LR.x264.AC3.Esub.WBZ.by.heavenly95.part1.rar
    http://www.fileserve.com/file/u9Ezubf/3Idiots.3D.2010.Bluray.720p.LR.x264.AC3.Esub.WBZ.by.heavenly95.part2.rar
    http://www.fileserve.com/file/NwAtemx/3Idiots.3D.2010.Bluray.720p.LR.x264.AC3.Esub.WBZ.by.heavenly95.part3.rar
    http://www.fileserve.com/file/7Ng85RV/3Idiots.3D.2010.Bluray.720p.LR.x264.AC3.Esub.WBZ.by.heavenly95.part4.rar
    http://www.fileserve.com/file/NhRFqHy/3Idiots.3D.2010.Bluray.720p.LR.x264.AC3.Esub.WBZ.by.heavenly95.part5.rar
    http://www.fileserve.com/file/cSu5kP3/3Idiots.3D.2010.Bluray.720p.LR.x264.AC3.Esub.WBZ.by.heavenly95.part6.rar
    Filesonic:
    Code:
    http://www.filesonic.com/file/1005251544/3Idiots.3D.2010.Bluray.720p.LR.x264.AC3.Esub.WBZ.by.heavenly95.part1.rar
    http://www.filesonic.com/file/1005246594/3Idiots.3D.2010.Bluray.720p.LR.x264.AC3.Esub.WBZ.by.heavenly95.part2.rar
    http://www.filesonic.com/file/1005239844/3Idiots.3D.2010.Bluray.720p.LR.x264.AC3.Esub.WBZ.by.heavenly95.part3.rar
    http://www.filesonic.com/file/1005246554/3Idiots.3D.2010.Bluray.720p.LR.x264.AC3.Esub.WBZ.by.heavenly95.part4.rar
    http://www.filesonic.com/file/1005239834/3Idiots.3D.2010.Bluray.720p.LR.x264.AC3.Esub.WBZ.by.heavenly95.part5.rar
    http://www.filesonic.com/file/1005215834/3Idiots.3D.2010.Bluray.720p.LR.x264.AC3.Esub.WBZ.by.heavenly95.part6.rar
    Netload:
    Code:
    http://www.netload.in/dateibw6TeQgvu0/3Idiots.3D.2010.Bluray.720p.LR.x264.AC3.Esub.WBZ.by.heavenly95.part1.rar.htm
    http://www.netload.in/dateiB9upgXGwMx/3Idiots.3D.2010.Bluray.720p.LR.x264.AC3.Esub.WBZ.by.heavenly95.part2.rar.htm
    http://www.netload.in/datei4dXGFE1uEI/3Idiots.3D.2010.Bluray.720p.LR.x264.AC3.Esub.WBZ.by.heavenly95.part3.rar.htm
    http://www.netload.in/datei0VFQzolTsO/3Idiots.3D.2010.Bluray.720p.LR.x264.AC3.Esub.WBZ.by.heavenly95.part4.rar.htm
    http://www.netload.in/dateiBNpRPO2Q9v/3Idiots.3D.2010.Bluray.720p.LR.x264.AC3.Esub.WBZ.by.heavenly95.part5.rar.htm
    http://www.netload.in/datei6OtMraK2pr/3Idiots.3D.2010.Bluray.720p.LR.x264.AC3.Esub.WBZ.by.heavenly95.part6.rar.htm
    Man is still the most extraordinary computer of all.




  2. #2
    RIP-Mate, You ll be Remembered:) www.desirulez.netwww.desirulez.net
    Join Date
    Feb 2011
    Posts
    1,613

    T

    Default

    ThanX 4 Sharing............................

 

 

Posting Permissions

  • You may not post new threads
  • You may not post replies
  • You may not post attachments
  • You may not edit your posts
  •