Results 1 to 1 of 1
  1. #1
    shawn rebecca
    Guest

    Default ESPN MMA Live EXTRA May 16th 2011

    Follow us on Social Media







    ESPN MMA Live EXTRA May 16th 2011


    General
    Complete name : ESPN MMA Live EXTRA May 16th 2011.flv
    Format : Flash Video
    File size : 24.3 MiB
    Duration : 4mn 14s
    Overall bit rate : 802 Kbps

    Video
    Format : VP6
    Duration : 4mn 14s
    Bit rate : 660 Kbps
    Width : 440 pixels
    Height : 330 pixels
    Display aspect ratio : 4:3
    Frame rate mode : Constant
    Frame rate : 24.000 fps
    Bits/(Pixel*Frame) : 0.189
    Stream size : 20.0 MiB (82%)

    Audio
    Format : MPEG Audio
    Format version : Version 1
    Format profile : Layer 3
    Duration : 4mn 14s
    Bit rate mode : Constant
    Bit rate : 96.0 Kbps
    Channel(s) : 1 channel
    Sampling rate : 44.1 KHz
    Bit depth : 16 bits
    Compression mode : Lossy
    Stream size : 2.92 MiB (12%)
    Code:
    http://www.fileserve.com/file/BMBHmSZ/ESPN MMA Live EXTRA May 16th 2011.flv
    Code:
    http://www.filesonic.com/file/1024976494/ESPN MMA Live EXTRA May 16th 2011.flv

 

 

Posting Permissions

  • You may not post new threads
  • You may not post replies
  • You may not post attachments
  • You may not edit your posts
  •