Results 1 to 1 of 1
  1. #1
    dR Dazzler www.desirulez.net
    Join Date
    Mar 2009
    Posts
    1,518

    T

    Default TNA.Sacrifice.2011.PPV.720p.HDTV.x264-XS

    Follow us on Social Media









    Code:
    General Information
    Complete name : TNA.Sacrifice.2011.PPV.720p.HDTV.x264-XS.mkv
    Format : Matroska
    File size : 4.76 GiB
    Duration : 2h 53mn
    Overall bit rate : 3 924 Kbps
    Writing application : Lavf51.12.1
    Writing library : Lavf51.12.1
    Video
    ID : 1
    Format : AVC
    Format/Info : Advanced Video Codec
    Format profile : [email protected]
    Format settings, CABAC : No
    Format settings, ReFrames : 1 frame
    Muxing mode : Container profile=Unkn[email protected]
    Codec ID : V_MPEG4/ISO/AVC
    Duration : 2h 53mn
    Bit rate : 3 525 Kbps
    Width : 1 280 pixels
    Height : 720 pixels
    Display aspect ratio : 16:9
    Frame rate : 29.970 fps
    Color space : YUV
    Chroma subsampling : 4:2:0
    Bit depth : 8 bits
    Scan type : Progressive
    Bits/(Pixel*Frame) : 0.128
    Stream size : 4.28 GiB (90%)
    Language : English
    Audio
    ID : 2
    Format : AC-3
    Format/Info : Audio Coding 3
    Mode extension : CM (complete main)
    Codec ID : A_AC3
    Duration : 2h 53mn
    Bit rate mode : Constant
    Bit rate : 320 Kbps
    Channel(s) : 2 channels
    Channel positions : Front: L R
    Sampling rate : 48.0 KHz
    Bit depth : 16 bits
    Stream size : 398 MiB (8%)
    Language : English
    Code:
    http://www.filesonic.com/file/1011600204/TNA.Sacrifice.2011.PPV.720p.HDTV.x264-XS.mkv
    Code:
    http://www.filesonic.com/file/1011580844/TNA.Sacrifice.2011.PPV.720p.HDTV.x264-XS.part1.rar
    http://www.filesonic.com/file/1011556314/TNA.Sacrifice.2011.PPV.720p.HDTV.x264-XS.part2.rar
    http://www.filesonic.com/file/1011552424/TNA.Sacrifice.2011.PPV.720p.HDTV.x264-XS.part3.rar
    http://www.filesonic.com/file/1011568444/TNA.Sacrifice.2011.PPV.720p.HDTV.x264-XS.part4.rar
    http://www.filesonic.com/file/1011548144/TNA.Sacrifice.2011.PPV.720p.HDTV.x264-XS.part6.rar
    Code:
    http://www.fileserve.com/file/sRyRtnR/TNA.Sacrifice.2011.PPV.720p.HDTV.x264-XS.part1.rar
    http://www.fileserve.com/file/SyH3twb/TNA.Sacrifice.2011.PPV.720p.HDTV.x264-XS.part2.rar
    http://www.fileserve.com/file/vn37zew/TNA.Sacrifice.2011.PPV.720p.HDTV.x264-XS.part3.rar
    http://www.fileserve.com/file/3VcZpDn/TNA.Sacrifice.2011.PPV.720p.HDTV.x264-XS.part5.rar
    http://www.fileserve.com/file/5PkUEFZ/TNA.Sacrifice.2011.PPV.720p.HDTV.x264-XS.part4.rar
    http://www.fileserve.com/file/muWsJzg/TNA.Sacrifice.2011.PPV.720p.HDTV.x264-XS.part6.rar
    Code:
    http://www.wupload.com/file/870364
    http://www.wupload.com/file/871013
    http://www.wupload.com/file/870209
    http://www.wupload.com/file/870208
    http://www.wupload.com/file/870355
    http://www.wupload.com/file/870120
    Last edited by Problem; 05-16-2011 at 09:45 PM.

 

 

Posting Permissions

  • You may not post new threads
  • You may not post replies
  • You may not post attachments
  • You may not edit your posts
  •