Results 1 to 3 of 3
  1. #1
    Banned www.desirulez.net
    Join Date
    Oct 2010
    Posts
    2,885

    T

    Default TNA.Sacrifice.2011.PPV.720p.HDTV.x264-XS

    Follow us on Social Media







    TNA.Sacrifice.2011.PPV.720p.HDTV.x264-XS



    General Information
    Complete name : TNA.Sacrifice.2011.PPV.720p.HDTV.x264-XS.mkv
    Format : Matroska
    File size : 4.76 GiB
    Duration : 2h 53mn
    Overall bit rate : 3 924 Kbps
    Writing application : Lavf51.12.1
    Writing library : Lavf51.12.1
    Video
    ID : 1
    Format : AVC
    Format/Info : Advanced Video Codec
    Format profile : Baseline[email protected]
    Format settings, CABAC : No
    Format settings, ReFrames : 1 frame
    Muxing mode : Container [email protected]
    Codec ID : V_MPEG4/ISO/AVC
    Duration : 2h 53mn
    Bit rate : 3 525 Kbps
    Width : 1 280 pixels
    Height : 720 pixels
    Display aspect ratio : 16:9
    Frame rate : 29.970 fps
    Color space : YUV
    Chroma subsampling : 4:2:0
    Bit depth : 8 bits
    Scan type : Progressive
    Bits/(Pixel*Frame) : 0.128
    Stream size : 4.28 GiB (90%)
    Language : English
    Audio
    ID : 2
    Format : AC-3
    Format/Info : Audio Coding 3
    Mode extension : CM (complete main)
    Codec ID : A_AC3
    Duration : 2h 53mn
    Bit rate mode : Constant
    Bit rate : 320 Kbps
    Channel(s) : 2 channels
    Channel positions : Front: L R
    Sampling rate : 48.0 KHz
    Bit depth : 16 bits
    Stream size : 398 MiB (8%)
    Language : English

    Code:
    http://lookpic.com/c1/i2/367/8uxS5WlH.png
    FILESERVE
    Code:
    http://www.fileserve.com/file/G9Dkr5G/TNA.Sacrifice.2011.PPV.720p.HDTV.x264-XS.part1.rar
    http://www.fileserve.com/file/RNtRWxq/TNA.Sacrifice.2011.PPV.720p.HDTV.x264-XS.part2.rar
    http://www.fileserve.com/file/vkT3gmR/TNA.Sacrifice.2011.PPV.720p.HDTV.x264-XS.part3.rar
    http://www.fileserve.com/file/GUzDBem/TNA.Sacrifice.2011.PPV.720p.HDTV.x264-XS.part4.rar
    http://www.fileserve.com/file/6jmPXGA/TNA.Sacrifice.2011.PPV.720p.HDTV.x264-XS.part5.rar
    FILESONIC
    Code:
    http://www.filesonic.com/file/1011223894/TNA.Sacrifice.2011.PPV.720p.HDTV.x264-XS.part1.rar
    http://www.filesonic.com/file/1011223814/TNA.Sacrifice.2011.PPV.720p.HDTV.x264-XS.part2.rar
    http://www.filesonic.com/file/1011228794/TNA.Sacrifice.2011.PPV.720p.HDTV.x264-XS.part3.rar
    http://www.filesonic.com/file/1011223804/TNA.Sacrifice.2011.PPV.720p.HDTV.x264-XS.part4.rar
    http://www.filesonic.com/file/1011223564/TNA.Sacrifice.2011.PPV.720p.HDTV.x264-XS.part5.rar

  2. #2
    dR Wrestlers www.desirulez.net
    Join Date
    Nov 2010
    Location
    West Newbury
    Posts
    166

    T

    Default

    Thank you

  3. #3
    Banned
    Join Date
    Apr 2011
    Posts
    1

    T

    Default

    Thank you very much.
    720's ROCK!!!

 

 

Posting Permissions

  • You may not post new threads
  • You may not post replies
  • You may not post attachments
  • You may not edit your posts
  •