Results 1 to 4 of 4
  1. #1
    Banned www.desirulez.net
    Join Date
    Oct 2010
    Posts
    2,885

    T

    Default TNA.Sacrifice.2011.PPV.HDTV.XviD-XS

    Follow us on Social Media







    TNA.Sacrifice.2011.PPV.HDTV.XviD-XS



    Complete name : TNA.Sacrifice.2011.PPV.HDTV.XviD-XS.avi
    Format : AVI
    Format/Info : Audio Video Interleave
    Format profile : OpenDML
    File size : 1.48 GiB
    Duration : 2hr 53mn 48s
    Overall bit rate : 1 202 Kbps
    Writing application : Lavf51.12.1
    Video
    ID : 0
    Format : MPEG-4 Visual
    Format profile : [email protected]
    Format settings, BVOP : No
    Format settings, QPel : No
    Format settings, GMC : No warppoints
    Format settings, Matrix : Default (H.263)
    Codec ID : DX50
    Codec ID/Hint : DivX 5
    Duration : 2hr 53mn 48s
    Bit rate : 1 074 Kbps
    Width : 624 pixels
    Height : 352 pixels
    Display aspect ratio : 16:9
    Frame rate : 29.970 fps
    Color space : YUV
    Chroma subsampling : 4:2:0
    Bit depth : 8 bits
    Scan type : Progressive
    Bits/(Pixel*Frame) : 0.163
    Stream size : 460 MiB (30%)
    Writing library : Lavc51.40.4
    Audio
    ID : 1
    Format : MPEG Audio
    Format version : Version 1
    Format profile : Layer 3
    Mode : Joint stereo
    Mode extension : MS Stereo
    Codec ID : 55
    Codec ID/Hint : MP3
    Duration : 2hr 53mn 48s
    Bit rate mode : Constant
    Bit rate : 128 Kbps
    Channel(s) : 2 channels
    Sampling rate : 48.0 KHz
    Stream size : 2.59 MiB (0%)
    Alignment : Aligned on interleaves
    Interleave, duration : 508 ms (15.23 video frames)
    USERSHARE
    Code:
    http://www.usershare.net/q6xe3mpvp2sv/TNA.Sacrifice.2011.PPV.HDTV.XviD-XS.part1.rar
    http://www.usershare.net/42a4ne84u4pt/TNA.Sacrifice.2011.PPV.HDTV.XviD-XS.part2.rar
    http://www.usershare.net/e0e55xuyig6x/TNA.Sacrifice.2011.PPV.HDTV.XviD-XS.part3.rar
    UPSTATION
    Code:
    hhttp://www.uploadstation.com/file/nDzq7hU/TNA.Sacrifice.2011.PPV.HDTV.XviD-XS.part1.rar
    http://www.uploadstation.com/file/yYDWmAh/TNA.Sacrifice.2011.PPV.HDTV.XviD-XS.part2.rar
    http://www.uploadstation.com/file/xWRy9nf/TNA.Sacrifice.2011.PPV.HDTV.XviD-XS.part3.rar
    FILESONIC
    Code:
    http://www.filesonic.com/file/1010453234/TNA.Sacrifice.2011.PPV.HDTV.XviD-XS.part1.rar
    http://www.filesonic.com/file/1010453204/TNA.Sacrifice.2011.PPV.HDTV.XviD-XS.part2.rar
    http://www.filesonic.com/file/1010441404/TNA.Sacrifice.2011.PPV.HDTV.XviD-XS.part3.rar
    FILESERVE
    Code:
    http://www.fileserve.com/file/Rc8Vr44/TNA.Sacrifice.2011.PPV.HDTV.XviD-XS.part1.rar
    http://www.fileserve.com/file/BU4Afvz/TNA.Sacrifice.2011.PPV.HDTV.XviD-XS.part2.rar
    http://www.fileserve.com/file/NsXYSjM/TNA.Sacrifice.2011.PPV.HDTV.XviD-XS.part3.rar
    BITSHARE
    Code:
    http://bitshare.com/files/9jp0k5dl/TNA.Sacrifice.2011.PPV.HDTV.XviD-XS.part1.rar.html
    http://bitshare.com/files/pipbxfen/TNA.Sacrifice.2011.PPV.HDTV.XviD-XS.part2.rar.html
    http://bitshare.com/files/1ri6t9aw/TNA.Sacrifice.2011.PPV.HDTV.XviD-XS.part3.rar.html
    FILESERVE 1 LINK
    Code:
    http://www.fileserve.com/file/VhpEZd8/TNA.Sacrifice.2011.PPV.HDTV.XviD-XS.avi
    FILESONIC PREMIUM
    Code:
    http://www.filesonic.com/file/1010515704/TNA.Sacrifice.2011.PPV.HDTV.XviD-XS.avi
    Last edited by Dj.IcE; 05-16-2011 at 08:10 PM.

  2. #2
    dR Wrestlers www.desirulez.net
    Join Date
    Nov 2010
    Location
    West Newbury
    Posts
    166

    T

    Default

    Thanks a lot

    // Perhaps which Rudos you know about will drop one's versions?
    Last edited by user; 05-16-2011 at 08:07 PM.

  3. #3
    Banned www.desirulez.net
    Join Date
    Oct 2010
    Posts
    2,885

    T

    Default

    rudos in 1.30 mins mate

  4. #4
    dR Wrestlers www.desirulez.net
    Join Date
    Nov 2010
    Location
    West Newbury
    Posts
    166

    T

    Default

    Thanks for info.

 

 

Posting Permissions

  • You may not post new threads
  • You may not post replies
  • You may not post attachments
  • You may not edit your posts
  •