Results 1 to 1 of 1
  1. #1
    dR Contributor www.desirulez.net
    Join Date
    Jan 2011
    Posts
    2,299

    T

    Smile Priest (2011) - READNFO - CAMRip - Xvid - [iMAGiNE]

    Follow us on Social Media









    Ripper ...........: IMAGiNE IMDB Rating.......:6.0/10
    Video Codec.......: XVID Release Date......:10/05/11
    Audio Codec.......:MP3 Theatre Date......:06/05/11
    Audio Bitrate.....:128 Runtime.......:1h 20mn
    Subtitles.........:NIL Language..........:ENGLISH
    Resolution...... 720 x 336

    DETAILS:

    Video
    ID : 0
    Format : MPEG-4 Visual
    Format profile : Advanced [email protected]
    Format settings, BVOP : 2
    Format settings, QPel : No
    Format settings, GMC : No warppoints
    Format settings, Matrix : Default (MPEG)
    Muxing mode : Packed bitstream
    Codec ID : XVID
    Codec ID/Hint : XviD
    Duration : 1h 20mn
    Bit rate : 2 312 Kbps
    Width : 720 pixels
    Height : 336 pixels
    Display aspect ratio : 2.2:1
    Frame rate : 25.000 fps
    Color space : YUV
    Chroma subsampling : 4:2:0
    Bit depth : 8 bits
    Scan type : Progressive
    Compression mode : Lossy
    Bits/(Pixel*Frame) : 0.382
    Stream size : 1.29 GiB (94%)
    Writing library : XviD 61

    Audio
    ID : 1
    Format : MPEG Audio
    Format version : Version 1
    Format profile : Layer 3
    Mode : Joint stereo
    Codec ID : 55
    Codec ID/Hint : MP3
    Duration : 1h 20mn
    Bit rate mode : Constant
    Bit rate : 128 Kbps
    Channel(s) : 2 channels
    Sampling rate : 44.1 KHz
    Compression mode : Lossy
    Stream size : 73.4 MiB (5%)







    Code:
    http://cramit.in/wa7ubis91qbt

 

 

Posting Permissions

  • You may not post new threads
  • You may not post replies
  • You may not post attachments
  • You may not edit your posts
  •