Results 1 to 4 of 4
  1. #1
    dR Contributor www.desirulez.net
    Join Date
    Jun 2010
    Location
    India
    Posts
    2,470

    T

    Default [MULTI+RS+MU] WWE.Raw.05.09.2011.HDTV.XviD-XS

    Follow us on Social Media







    WWE.Raw.05.09.2011.HDTV.XviD-XS

    Code:
    General Information
    Complete name : WWE.Raw.05.09.2011.HDTV.XviD-XS.avi
    Format : AVI
    Format/Info : Audio Video Interleave
    File size : 882 MiB
    Duration : 1h 34mn
    Overall bit rate : 1 307 Kbps
    Writing application : Lavf51.12.1
    Video
    ID : 0
    Format : MPEG-4 Visual
    Format profile : [email protected]
    Format settings, BVOP : No
    Format settings, QPel : No
    Format settings, GMC : No warppoints
    Format settings, Matrix : Default (H.263)
    Codec ID : DX50
    Codec ID/Hint : DivX 5
    Duration : 1h 34mn
    Bit rate : 1 166 Kbps
    Width : 624 pixels
    Height : 352 pixels
    Display aspect ratio : 16:9
    Frame rate : 29.970 fps
    Color space : YUV
    Chroma subsampling : 4:2:0
    Bit depth : 8 bits
    Scan type : Progressive
    Bits/(Pixel*Frame) : 0.177
    Stream size : 787 MiB (89%)
    Writing library : Lavc51.40.4
    Audio
    ID : 1
    Format : MPEG Audio
    Format version : Version 1
    Format profile : Layer 3
    Mode : Joint stereo
    Mode extension : MS Stereo
    Codec ID : 55
    Codec ID/Hint : MP3
    Duration : 1h 34mn
    Bit rate mode : Constant
    Bit rate : 128 Kbps
    Channel(s) : 2 channels
    Sampling rate : 48.0 KHz
    Stream size : 86.4 MiB (10%)
    Alignment : Aligned on interleaves
    Interleave, duration : 24 ms (0.72 video frame)



    1 Link Download

    Code:
    http://www.fileserve.com/file/CAeAkYU/WWE.Raw.05.09.2011.HDTV.XviD-XS.avi


    Code:
    http://www.mediafire.com/?ptv6kdlx026k59k
    http://www.mediafire.com/?7o3ec653g261ycw
    http://www.mediafire.com/?xm2392uwd8r62eo
    http://www.mediafire.com/?8sejze4hjoajbwk
    http://www.mediafire.com/?g0pto9mt1kmhyaa
    Code:
    http://www.megaupload.com/?d=1AK8EH2H
    http://www.megaupload.com/?d=X7C0BM8O
    http://www.megaupload.com/?d=AVV7NKD9
    http://www.megaupload.com/?d=KUVBDY5R
    http://www.megaupload.com/?d=EP218AC0
    Code:
    http://rapidshare.com/files/461678011/WWE.Raw.05.09.2011.HDTV.XviD-XS.part1.rar
    http://rapidshare.com/files/461678001/WWE.Raw.05.09.2011.HDTV.XviD-XS.part2.rar
    http://rapidshare.com/files/461677981/WWE.Raw.05.09.2011.HDTV.XviD-XS.part3.rar
    http://rapidshare.com/files/461677952/WWE.Raw.05.09.2011.HDTV.XviD-XS.part4.rar
    http://rapidshare.com/files/461677708/WWE.Raw.05.09.2011.HDTV.XviD-XS.part5.rar
    Code:
    http://hotfile.com/dl/117329900/7bfc237/WWE.Raw.05.09.2011.HDTV.XviD-XS.part1.rar.html
    http://hotfile.com/dl/117330031/efbb65c/WWE.Raw.05.09.2011.HDTV.XviD-XS.part2.rar.html
    http://hotfile.com/dl/117329968/91937cf/WWE.Raw.05.09.2011.HDTV.XviD-XS.part3.rar.html
    http://hotfile.com/dl/117330055/b3a4fa5/WWE.Raw.05.09.2011.HDTV.XviD-XS.part4.rar.html
    http://hotfile.com/dl/117329745/0eda1af/WWE.Raw.05.09.2011.HDTV.XviD-XS.part5.rar.html

  2. #2
    Landed To DesiRulez www.desirulez.me
    Join Date
    Jan 2011
    Posts
    29

    T

    Default

    Thx~ aa92

  3. #3
    dR Contributor www.desirulez.net
    Join Date
    Mar 2011
    Location
    IRAN
    Posts
    298

    T

    Default

    thanks for mediafire

  4. #4
    The Creator :) www.desirulez.org
    Join Date
    Mar 2008
    Posts
    11,198

    T

    Default







 

 

Posting Permissions

  • You may not post new threads
  • You may not post replies
  • You may not post attachments
  • You may not edit your posts
  •