Results 1 to 1 of 1
  1. #1
    dR Rockers www.desirulez.net
    Join Date
    Apr 2011
    Posts
    687

    T

    Arrow Gajini(2005) -1CD- DVDRip- XVID - Mp3 [DL / FSc / Fs]

    Follow us on Social Media










    Code:
    General
    Complete name                    : Ghajini (2005)DVD - Rip - XviD - 1CD - MP3 - Team IST.avi
    Format                           : AVI
    Format/Info                      : Audio Video Interleave
    File size                        : 729 MiB
    Duration                         : 2h 53mn
    Overall bit rate                 : 586 Kbps
    
    Video
    ID                               : 0
    Format                           : MPEG-4 Visual
    Format profile                   : Advanced [email protected]
    Format settings, BVOP            : Yes
    Format settings, QPel            : Yes
    Format settings, GMC             : No warppoints
    Format settings, Matrix          : Default (H.263)
    Codec ID                         : XVID
    Codec ID/Hint                    : XviD
    Duration                         : 2h 53mn
    Bit rate                         : 485 Kbps
    Width                            : 608 pixels
    Height                           : 256 pixels
    Display aspect ratio             : 2.35:1
    Frame rate                       : 23.976 fps
    Resolution                       : 8 bits
    Colorimetry                      : 4:2:0
    Scan type                        : Progressive
    Bits/(Pixel*Frame)               : 0.130
    Stream size                      : 603 MiB (83%)
    Writing library                  : XviD 1.2.1 (UTC 2008-12-04)
    
    Audio
    ID                               : 1
    Format                           : MPEG Audio
    Format version                   : Version 1
    Format profile                   : Layer 3
    Format_Settings_Mode             : Joint stereo
    Format_Settings_ModeExtension    : MS Stereo
    Codec ID                         : 55
    Codec ID/Hint                    : MP3
    Duration                         : 2h 53mn
    Bit rate mode                    : Variable
    Bit rate                         : 91.3 Kbps
    Nominal bit rate                 : 96.0 Kbps
    Channel(s)                       : 2 channels
    Sampling rate                    : 32.0 KHz
    Stream size                      : 114 MiB (16%)
    Alignment                        : Aligned on interleaves
    Interleave, duration             : 36 ms (0.86 video frame)
    Interleave, preload duration     : 113 ms
    Title                            : VTS_02_1 T80 3_2ch 448Kbps DELAY 0ms
    Writing library                  : LAME3.98r
    Encoding settings                : -m j -V 4 -q 2 -lowpass 15.1 --abr 96
    














    Credits : IST



    Single Links

    Code:
    http://www.filesonic.com/file/949549511/Ghajini.2005.DvDRip.Tamil.IST.avi
    Code:
    http://www.fileserve.com/file/cmnUX6H/Ghajini.2005.DvDRip.Tamil.IST.avi
    Code:
    http://www.duckload.com/download/5524151/Ghajini.2005.DvDRip.Tamil.IST.avi
    Split Links

    Fileserve Links:-

    Code:
    http://www.fileserve.com/file/ArCf9UV/Ghajini.2005.DvDRip.Tamil.IST.avi.001
    http://www.fileserve.com/file/5XsPFPz/Ghajini.2005.DvDRip.Tamil.IST.avi.002
    http://www.fileserve.com/file/3guzsJm/Ghajini.2005.DvDRip.Tamil.IST.avi.003
    http://www.fileserve.com/file/jaxgn3d/Ghajini.2005.DvDRip.Tamil.IST.avi.004

    duckload Links:-

    Code:
    http://www.duckload.com/download/5524138/Ghajini.2005.DvDRip.Tamil.IST.avi.001
    http://www.duckload.com/download/5524141/Ghajini.2005.DvDRip.Tamil.IST.avi.002
    http://www.duckload.com/download/5524139/Ghajini.2005.DvDRip.Tamil.IST.avi.003
    http://www.duckload.com/download/5524142/Ghajini.2005.DvDRip.Tamil.IST.avi.004
    Filesonic Links:-
    Code:
    http://www.filesonic.com/file/949629714/Ghajini.2005.DvDRip.Tamil.IST.avi.001
    http://www.filesonic.com/file/949629694/Ghajini.2005.DvDRip.Tamil.IST.avi.002
    http://www.filesonic.com/file/949629664/Ghajini.2005.DvDRip.Tamil.IST.avi.003
    http://www.filesonic.com/file/949629724/Ghajini.2005.DvDRip.Tamil.IST.avi.004

 

 

Posting Permissions

  • You may not post new threads
  • You may not post replies
  • You may not post attachments
  • You may not edit your posts
  •