Results 1 to 1 of 1
  1. #1
    Banned www.desirulez.net
    Join Date
    Apr 2011
    Posts
    100

    T

    Post [Hindi Dubbed] Female 300 | 2011 | 500MB | CRYME.0007 | Team EXD

    Follow us on Social Media









    [Hindi Dubbed] Female 300 | 2011 | 500MB | CRYME.0007 | Team EXD






    General
    Complete name : Female 300 (2011) Hindi CRYME.0007 [Team EXD].mkv
    Format : Matroska
    File size : 482 MiB
    Duration : 1h 32mn
    Overall bit rate : 731 Kbps
    Encoded date : UTC 2011-05-05 11:32:42
    Writing application : mkvmerge v4.2.0 ('No Talking') built on Jul 28 2010 18:38:23
    Writing library : libebml v1.0.0 + libmatroska v1.0.0


    Video
    ID : 1
    Format : AVC
    Format/Info : Advanced Video Codec
    Format profile : [email protected]
    Format settings, CABAC : Yes
    Format settings, ReFrames : 4 frames
    Muxing mode : Header stripping
    Codec ID : V_MPEG4/ISO/AVC
    Duration : 1h 32mn
    Bit rate : 633 Kbps
    Width : 352 pixels
    Height : 288 pixels
    Display aspect ratio : 4:3
    Frame rate : 25.000 fps
    Standard : PAL
    Color space : YUV
    Chroma subsampling : 4:2:0
    Bit depth : 8 bits
    Scan type : Progressive
    Bits/(Pixel*Frame) : 0.250
    Stream size : 409 MiB (85%)
    Writing library : x264 core 112 r1834 a51816a


    Audio
    ID : 2
    Format : MPEG Audio
    Format version : Version 1
    Format profile : Layer 3
    Muxing mode : Header stripping
    Codec ID : A_MPEG/L3
    Codec ID/Hint : MP3
    Duration : 1h 32mn
    Bit rate mode : Constant
    Bit rate : 96.0 Kbps
    Channel(s) : 2 channels
    Sampling rate : 44.1 KHz
    Compression mode : Lossy
    Stream size : 63.4 MiB (13%)
    Writing library : LAME3.98r
    Encoding settings : -m s -V 4 -q 2 -lowpass 15.1 -b 96






    ~*Single Links*~
    Code:
    http://www.fileserve.com/file/R6RNJb2

    ~*Single Links*~
    Code:
    http://www.duckload.com/download/5487571/Female_300_2011_Hindi_CRYME.0007_TeamEXD_.mkv

 

 

Posting Permissions

  • You may not post new threads
  • You may not post replies
  • You may not post attachments
  • You may not edit your posts
  •