Results 1 to 1 of 1
  1. #1
    Super Member www.desirulez.net
    Join Date
    Jan 2011
    Posts
    495

    T

    Default Superior.Challenge.7.Rise.of.Champions.HDTV.XviD-XS

    Follow us on Social Media







    Superior.Challenge.7.Rise.of.Champions.HDTV.XviD-XS



    Complete name : Superior.Challenge.7.Rise.of.Champions.HDNET.HDTV.XviD-XS.avi
    Format : AVI
    Format/Info : Audio Video Interleave
    Format profile : OpenDML
    File size : 1.36 GiB
    Duration : 2hr 36mn 14s
    Overall bit rate : 1 228 Kbps
    Writing application : Lavf51.12.1
    Video
    ID : 0
    Format : MPEG-4 Visual
    Format profile : [email protected]
    Format settings, BVOP : No
    Format settings, QPel : No
    Format settings, GMC : No warppoints
    Format settings, Matrix : Default (H.263)
    Codec ID : DX50
    Codec ID/Hint : DivX 5
    Duration : 44mn 40s
    Bit rate : 1 100 Kbps
    Width : 624 pixels
    Height : 352 pixels
    Display aspect ratio : 16:9
    Frame rate : 29.970 fps
    Color space : YUV
    Chroma subsampling : 4:2:0
    Bit depth : 8 bits
    Scan type : Progressive
    Bits/(Pixel*Frame) : 0.167
    Stream size : 352 MiB (25%)
    Writing library : Lavc51.40.4
    Audio
    ID : 1
    Format : MPEG Audio
    Format version : Version 1
    Format profile : Layer 3
    Mode : Joint stereo
    Mode extension : MS Stereo
    Codec ID : 55
    Codec ID/Hint : MP3
    Duration : 40mn 7s
    Bit rate mode : Constant
    Bit rate : 128 Kbps
    Channel(s) : 2 channels
    Sampling rate : 48.0 KHz
    Stream size : 36.7 MiB (3%)
    Alignment : Aligned on interleaves
    Interleave, duration : 27 ms (0.80 video frame)


    Fight Card:
    {Middleweight Championship} - Vacant Jeremy Gumby Horn (87-20) vs. Thales Leites (18-4)
    {Lightweight Championship} - Vacant Rich No Love Clementi (40-18) vs. Reza Mad Dog Madadi (10-2)
    {Welterweight Championship} - Vacant Daniel The Viking Hunter Acacio (22-11) vs. Diego Gonzalez (13-4)
    Matti Makela (10-9) vs. Hector Sick Dog Ramirez (8-4)
    Beslan Isaev (14-3) vs. Assan The Black Attack Njie (10-2)
    Robert Jocz (19-6) vs. Tor The Hammer Troeng (11-4)
    Bruno BC Carvalho (12-4) vs. Kyacey Ice Cold Uscola (22-18)
    Mohsen Bahari (3-0) vs. Farshad Farsiani (1-2)
    James Thaison Doolan (11-4) vs. Sirwan Kakai (5-1)
    Lina Eklund (0-0) vs. Kristina Talvosaite (0-0)
    Andreas Stahl (3-0) vs. Johan Vanttinen (3-0)


    Code:
    FILESERVE
    http://www.fileserve.com/file/2rudgFR/Superior.Challenge.7.Rise.of.Champions.HDNET.HDTV.XviD-XS.avi
    Code:
    FILESONIC
    http://www.filesonic.com/file/936917581/Superior.Challenge.7.Rise.of.Champions.HDNET.HDTV.XviD-XS.avi

 

 

Posting Permissions

  • You may not post new threads
  • You may not post replies
  • You may not post attachments
  • You may not edit your posts
  •