Results 1 to 2 of 2
  1. #1
    Tech Team www.desirulez.net
    Join Date
    Dec 2010
    Location
    India
    Posts
    434

    T

    Talking Haunted 3D (2011) 400Mb - SCAM RIP (Good Quality) - x264 - Team ArG

    Follow us on Social Media








    Haunted 3D (2011) 400Mb - SCAM RIP (Good Quality) - x264 - Team ArG



    INFO::

    Movie Information:
    Director:Vikram Bhatt
    Writers:Amin Hajee (screenplay), Amin Hajee (story)
    Stars:Tia Bajpai, Mahakshay Chakraborty and Mimoh Chakraborty
    Country:India
    Language:Hindi
    Release Date:6 May 2011 (India)
    IMDB LINK:Haunted - 3D (2011) - IMDb
    Video Specifications:
    Format : Matroska
    File size : 424 MiB
    Duration : 2h 6mn
    Overall bit rate : 468 Kbps
    Writing application : Lavf52.39.1
    Writing library : Lavf52.39.1

    Video
    ID : 1
    Format : MPEG-4 Visual
    Format profile : [email protected]
    Format settings, BVOP : No
    Format settings, QPel : No
    Format settings, GMC : No warppoints
    Format settings, Matrix : Default (H.263)
    Codec ID : V_MPEG4/ISO/ASP
    Codec ID/Info : Advanced Simple Profile
    Duration : 2h 6mn
    Bit rate : 394 Kbps
    Width : 608 pixels
    Height : 256 pixels
    Display aspect ratio : 4:3
    Frame rate mode : Constant
    Frame rate : 25.000 fps
    Color space : YUV
    Chroma subsampling : 4:2:0
    Bit depth : 8 bits
    Scan type : Progressive
    Compression mode : Lossy
    Bits/(Pixel*Frame) : 0.101
    Stream size : 358 MiB (84%)
    Writing library : Lavc52.37.0
    Language : hindi

    Audio
    ID : 2
    Format : MPEG Audio
    Format version : Version 1
    Format profile : Layer 3
    Mode : Joint stereo
    Mode extension : MS Stereo
    Codec ID : A_MPEG/L3
    Codec ID/Hint : MP3
    Duration : 2h 6mn
    Bit rate mode : Constant
    Bit rate : 64.0 Kbps
    Channel(s) : 2 channels
    Sampling rate : 44.1 KHz
    Compression mode : Lossy
    Stream size : 58.1 MiB (14%)
    Language : hindi
    SCREENSHOTS::







    DOWNLOAD FROM DUCKLOAD::
    Code:
    http://www.duckload.com/download/5426806/Haunted3D.mkv
    DOWNLOAD FROM FREAKSHARE::
    Code:
    http://freakshare.com/files/lfjbkqlb/Haunted3D.mkv.html
    DOWNLOAD FROM WUPLOAD::
    Code:
    http://www.wupload.com/file/38459/Haunted3D

    Give Credits To Team ArG wherever u share this Rip



  2. #2
    Administrators www.desirulez.net
    Join Date
    Mar 2010
    Location
    Sea Side
    Posts
    9,872

    T

    Default


 

 

Posting Permissions

  • You may not post new threads
  • You may not post replies
  • You may not post attachments
  • You may not edit your posts
  •