Results 1 to 1 of 1
  1. #1
    dR Contributor www.desirulez.net
    Join Date
    Jan 2011
    Posts
    2,299

    T

    Smile Shor in the City (2011) - 1CD - DVDScr - Xvid - [TDT]

    Follow us on Social Media









    Format : AVI
    Format/Info : Audio Video Interleave
    File size : 701 MiB
    Duration : 1h 48mn
    Overall bit rate : 905 Kbps

    Video
    ID : 0
    Format : MPEG-4 Visual
    Format profile : Advanced [email protected]
    Codec ID : XVID
    Duration : 1h 48mn
    Duration : 1h 48mn
    Bit rate : 768 Kbps
    Width : 624 pixels
    Height : 272 pixels
    Display aspect ratio : 2.25:1
    Frame rate : 23.976 fps
    Bits/(Pixel*Frame) : 0.189
    Stream size : 595 MiB (85%)

    Audio
    ID : 1
    Format : MPEG Audio
    Codec ID/Hint : MP3
    Duration : 1h 48mn
    Bit rate mode : Constant
    Bit rate : 128 Kbps
    Channel(s) : 2 channels
    Sampling rate : 48.0 KHz
    Stream size : 99.2 MiB (14%)





    Credits to "TDT"



    Code:
    http://cramit.in/9mnd6pbbae6d

    Please add "REP" if you like my posts.

 

 

Posting Permissions

  • You may not post new threads
  • You may not post replies
  • You may not post attachments
  • You may not edit your posts
  •