Results 1 to 1 of 1
  1. #1
    Banned www.desirulez.net
    Join Date
    Apr 2011
    Posts
    100

    T

    Post Aladdin 1992 1080p HDTVRIP [Dual-Audio][Eng-Hindi]~Alan~BONIIN

    Follow us on Social Media









    Aladdin 1992 1080p HDTVRIP [Dual-Audio][Eng-Hindi]~Alan~BONIIN





    Release Title: Aladdin 1992

    Release Date: 25th November 1992 (USA)

    Film Length: 1:30:25

    Tagline: Imagine if you had three wishes, three hopes, three dreams and they all could come true.

    Storyline: Aladdin is a street-urchin who lives in a large and busy town long ago with his faithful monkey friend Abu. When Princess Jasmine gets tired of being forced to remain in the palace that overlooks the city, she sneaks out to the marketplace, where she accidentally meets Aladdin. Under the orders of the evil Jafar (the sultan's advisor), Aladdin is thrown in jail and becomes caught up in Jafar's plot to rule the land with the aid of a mysterious lamp. Legend has it that only a person who is a "diamond in the rough" can retrieve the lamp from the Cave of Wonders. Aladdin might fight that description, but that's not enough to marry the princess, who must (by law) marry a prince.



    Scott Weinger ... Aladdin (voice)
    Robin Williams ... Genie (voice)
    Linda Larkin ... Jasmine (voice)
    Jonathan Freeman ... Jafar (voice)
    Frank Welker ... Abu / Rajah (voice)
    Gilbert Gottfried ... Iago (voice)
    Douglas Seale ... Sultan (voice)
    Charles Adler ... Additional Voices (voice) (as Charlie Adler)
    Jack Angel ... Additional Voices (voice)
    Corey Burton ... Additional Voices (voice)
    Philip L. Clarke ... Additional Voices (voice) (as Philip Clarke)
    Jim Cummings ... Razoul / Farouk / Omar (voice)
    Jennifer Darling ... Additional Voices (voice)
    Debi Derryberry ... Additional Voices (voice)
    Bruce Gooch ... Additional Voices (voice)



    Genre: Animation | Adventure | Family
    Format: Matroska
    File Size: 2.12 GiB
    Duration: 1h 30mn
    Movie name: Aladdin 1992 1080p HDTV Dual Audio [Eng-Hindi]~Alan (HDDR Release)
    Language: English and Hindi
    Ripper: Alan



    Video
    ID : 1
    Format : AVC
    Format/Info : Advanced Video Codec
    Format profile : [email protected]
    Format settings, CABAC : Yes
    Format settings, ReFrames : 4 frames
    Muxing mode : Header stripping
    Codec ID : V_MPEG4/ISO/AVC
    Duration : 1h 30mn
    Bit rate : 2 782 Kbps
    Width : 1 920 pixels
    Height : 1 080 pixels
    Display aspect ratio : 16:9
    Frame rate : 23.976 fps
    Color space : YUV
    Chroma subsampling : 4:2:0
    Bit depth : 8 bits
    Scan type : Progressive
    Bits/(Pixel*Frame) : 0.056
    Stream size : 1.71 GiB (81%)
    Title : Alan
    Writing library : x264 core 114 r1924 08d04a4



    Audio #1
    ID : 2
    Format : AC-3
    Format/Info : Audio Coding 3
    Mode extension : CM (complete main)
    Muxing mode : Header stripping
    Codec ID : A_AC3
    Duration : 1h 30mn
    Bit rate mode : Constant
    Bit rate : 384 Kbps
    Channel(s) : 6 channels
    Channel positions : Front: L C R, Side: L R, LFE
    Sampling rate : 48.0 KHz
    Bit depth : 16 bits
    Compression mode : Lossy
    Stream size : 248 MiB (11%)
    Title : Track 1
    Language : English



    Audio #2
    ID : 3
    Format : AC-3
    Format/Info : Audio Coding 3
    Mode extension : CM (complete main)
    Muxing mode : Header stripping
    Codec ID : A_AC3
    Duration : 1h 30mn
    Bit rate mode : Constant
    Bit rate : 192 Kbps
    Channel(s) : 2 channels
    Channel positions : Front: L R
    Sampling rate : 48.0 KHz
    Bit depth : 16 bits
    Compression mode : Lossy
    Delay relative to video : 14ms
    Stream size : 124 MiB (6%)
    Title : Alan
    Language : Hindi












    [IMG]
    Code:
    http://www.fileserve.com/file/qfV2VxP
    http://www.fileserve.com/file/s2hb3Kn
    http://www.fileserve.com/file/DSAJf5P

 

 

Posting Permissions

  • You may not post new threads
  • You may not post replies
  • You may not post attachments
  • You may not edit your posts
  •