Results 1 to 1 of 1
  1. #1
    Hot Member www.desirulez.net
    Join Date
    Sep 2009
    Posts
    1,215

    Thumbs up Dabangg 3D Side By Side LR BD RIP XVID MP3 Striker WBZ

    Follow us on Social Media








    This is a 2D to 3D conversion using Side By Side Left/Right Technic.


    - PC & Mac
    Plays with Stereoscopic Player (Shareware)
    Nvidia Stereoscopic Player (free)
    ArcSoft TotalMedia
    PowerDVD 10 Ultra Mark II


    - TV
    Compatible with 3D TVs and 3D-Ready TVs that can play SBS (mostly all).
    (Click on 3D button on remote and Chose Side By Side Left / Right when inputing this file)


    General

    3D Specs : 2D to 3D with Side By Side Left-Right Images
    Format : AVI
    File size : 2.34 GB
    Duration : 2h 6mn
    Overall bit rate :2656 Kbps


    VIDEO
    ID : 0
    Format : MPEG-4 Visual
    Format profile : Advanced [email protected]
    Format settings, BVOP : 2
    Format settings, QPel : No
    Format settings, GMC : No warppoints
    Format settings, Matrix : Default (H.263)
    Muxing mode : Packed bitstream
    Codec ID : XVID
    Codec ID/Hint : XviD
    Duration : 2h 6mn
    Bit rate : 2 196 Kbps
    Width : 1 440 pixels
    Height : 304 pixels
    Display aspect ratio : 4.737
    Frame rate : 24.000 fps
    Color space : YUV
    Chroma subsampling : 4:2:0
    Bit depth : 8 bits
    Scan type : Progressive
    Compression mode : Lossy
    Bits/(Pixel*Frame) : 0.209
    Stream size : 1.93 GiB (83%)
    Writing library : XviD 1.1.2 (UTC 2006-11-01)

    AUDIO
    ID : 1
    Format : AC-3
    Format/Info : Audio Coding 3
    Mode extension : CM (complete main)
    Codec ID : 2000
    Duration : 2h 6mn
    Bit rate mode : Constant
    Bit rate : 448 Kbps
    Channel(s) : 6 channels
    Channel positions : Front: L C R, Side: L R, LFE
    Sampling rate : 48.0 KHz
    Bit depth : 16 bits
    Compression mode : Lossy
    Stream size : 404 MiB (17%)
    Alignment : Split accross interleaves
    Interleave, duration : 42 ms (1.00 video frame)
    Interleave, preload duration : 500 ms















    Code:
    http://www.fileserve.com/file/ZbUE2Wf
    http://www.fileserve.com/file/HfNSTqv
    http://www.fileserve.com/file/6Zdf6QJ
    Code:
    http://www.filesonic.com/file/907742234
    http://www.filesonic.com/file/907802464
    http://www.filesonic.com/file/907902961
    Code:
    http://www.duckload.com/dl/4Od72
    http://www.duckload.com/dl/XPd72
    http://www.duckload.com/dl/HUd72



 

 

Posting Permissions

  • You may not post new threads
  • You may not post replies
  • You may not post attachments
  • You may not edit your posts
  •