Results 1 to 1 of 1
  1. #1
    shawn rebecca
    Guest

    Lightbulb UFC 129 - Spike Prelims 1080i HDTV

    Follow us on Social Media





    UFC 129 - Spike Prelims 1080i HDTV



    General Info:

    Size: 6495.25 MiB, Duration: 54mn 31s, Average Bitrate: 16.7 Mbps
    Video: MPEG Video, 1920x1080, 15.1 Mbps, 29.970 fps
    Audio: AC-3, 48.0 KHz, 2 channels, 384 Kbps

    Detailed Info:

    Format : MPEG-TS
    File size : 6.34 GiB
    Duration : 54mn 31s
    Overall bit rate : 16.7 Mbps

    Video
    ID : 524 (0x20C)
    Menu ID : 1 (0x1)
    Format : MPEG Video
    Format version : Version 2
    Format profile : [email protected]
    Format settings, BVOP : Yes
    Format settings, Matrix : Default
    Codec ID : 2
    Duration : 54mn 31s
    Bit rate mode : Variable
    Bit rate : 15.4 Mbps
    Nominal bit rate : 18.0 Mbps
    Width : 1 920 pixels
    Height : 1 080 pixels
    Display aspect ratio : 16:9
    Frame rate : 29.970 fps
    Color space : YUV
    Chroma subsampling : 4:2:0
    Bit depth : 8 bits
    Scan type : Interlaced
    Scan order : Top Field First
    Compression mode : Lossy
    Bits/(Pixel*Frame) : 0.248
    Stream size : 5.88 GiB (93%)

    Audio
    ID : 523 (0x20B)
    Menu ID : 1 (0x1)
    Format : AC-3
    Format/Info : Audio Coding 3
    Mode extension : CM (complete main)
    Codec ID : 129
    Duration : 54mn 31s
    Bit rate mode : Constant
    Bit rate : 384 Kbps
    Channel(s) : 2 channels
    Channel positions : Front: L R
    Sampling rate : 48.0 KHz
    Bit depth : 16 bits
    Compression mode : Lossy
    Stream size : 150 MiB (2%)
    Language : English
    Use Hj Split to Merge .001 File

    Code:
    http://www.fileserve.com/file/ugxgT7e/UFC 129 - Spike Prelims 1080i HDTV AC3 2.0 MPEG2-MMAT.ts.008
    http://www.fileserve.com/file/27B7TGU/UFC 129 - Spike Prelims 1080i HDTV AC3 2.0 MPEG2-MMAT.ts.009
    http://www.fileserve.com/file/psc22NT/UFC 129 - Spike Prelims 1080i HDTV AC3 2.0 MPEG2-MMAT.ts.007
    http://www.fileserve.com/file/DpBz2CX/UFC 129 - Spike Prelims 1080i HDTV AC3 2.0 MPEG2-MMAT.ts.006
    http://www.fileserve.com/file/9AhxgxS/UFC 129 - Spike Prelims 1080i HDTV AC3 2.0 MPEG2-MMAT.ts.005
    http://www.fileserve.com/file/MCaAzeG/UFC 129 - Spike Prelims 1080i HDTV AC3 2.0 MPEG2-MMAT.ts.002
    http://www.fileserve.com/file/c7eT5qN/UFC 129 - Spike Prelims 1080i HDTV AC3 2.0 MPEG2-MMAT.ts.001
    http://www.fileserve.com/file/CTMDprG/UFC 129 - Spike Prelims 1080i HDTV AC3 2.0 MPEG2-MMAT.ts.003
    http://www.fileserve.com/file/gqW3ck6/UFC 129 - Spike Prelims 1080i HDTV AC3 2.0 MPEG2-MMAT.ts.004
    Code:
    http://www.filesonic.com/file/885584404/UFC 129 - Spike Prelims 1080i HDTV AC3 2.0 MPEG2-MMAT.ts.004
    http://www.filesonic.com/file/885584324/UFC 129 - Spike Prelims 1080i HDTV AC3 2.0 MPEG2-MMAT.ts.002
    http://www.filesonic.com/file/885584344/UFC 129 - Spike Prelims 1080i HDTV AC3 2.0 MPEG2-MMAT.ts.003
    http://www.filesonic.com/file/885584374/UFC 129 - Spike Prelims 1080i HDTV AC3 2.0 MPEG2-MMAT.ts.001
    http://www.filesonic.com/file/885598034/UFC 129 - Spike Prelims 1080i HDTV AC3 2.0 MPEG2-MMAT.ts.005
    http://www.filesonic.com/file/885628264/UFC 129 - Spike Prelims 1080i HDTV AC3 2.0 MPEG2-MMAT.ts.006
    http://www.filesonic.com/file/885659064/UFC 129 - Spike Prelims 1080i HDTV AC3 2.0 MPEG2-MMAT.ts.007
    http://www.filesonic.com/file/885666914/UFC 129 - Spike Prelims 1080i HDTV AC3 2.0 MPEG2-MMAT.ts.009
    http://www.filesonic.com/file/885668844/UFC 129 - Spike Prelims 1080i HDTV AC3 2.0 MPEG2-MMAT.ts.008

 

 

Posting Permissions

  • You may not post new threads
  • You may not post replies
  • You may not post attachments
  • You may not edit your posts
  •