Results 1 to 1 of 1
  1. #1

    Thumbs up VA - Electronic Videomix Vol. 2 + BONUS [DJ Luccio]

    Follow us on Social Media







    VA - Electronic Videomix Vol. 2 + BONUS [DJ Luccio]



    BONUS :
    Ultra Weekend 6 Megamix (Al B. Rich Remix)



    INFO :
    Code:
    Format                           : AVI
    Format/Info                      : Audio Video Interleave
    File size                        : 625 MiB
    Duration                         : 1h 19mn
    Overall bit rate                 : 1 100 Kbps
    
    Video
    ID                               : 0
    Format                           : MPEG-4 Visual
    Format settings, BVOP            : Yes
    Format settings, QPel            : No
    Format settings, GMC             : No warppoints
    Format settings, Matrix          : Default (H.263)
    Muxing mode                      : Packed bitstream
    Codec ID                         : DX50
    Codec ID/Hint                    : DivX 5
    Duration                         : 1h 19mn
    Bit rate                         : 900 Kbps
    Width                            : 640 pixels
    Height                           : 480 pixels
    Display aspect ratio             : 4:3
    Frame rate                       : 29.970 fps
    Color space                      : YUV
    Chroma subsampling               : 4:2:0
    Bit depth                        : 8 bits
    Scan type                        : Progressive
    Compression mode                 : Lossy
    Bits/(Pixel*Frame)               : 0.098
    Stream size                      : 511 MiB (82%)
    Writing library                  : DivX 6.8.5 (UTC 2009-08-20)
    
    Audio
    ID                               : 1
    Format                           : MPEG Audio
    Format version                   : Version 1
    Format profile                   : Layer 3
    Mode                             : Joint stereo
    Mode extension                   : MS Stereo
    Codec ID                         : 55
    Codec ID/Hint                    : MP3
    Duration                         : 1h 19mn
    Bit rate mode                    : Constant
    Bit rate                         : 192 Kbps
    Channel(s)                       : 2 channels
    Sampling rate                    : 44.1 KHz
    Compression mode                 : Lossy
    Stream size                      : 109 MiB (17%)
    Alignment                        : Split accross interleaves
    Interleave, duration             : 500 ms (15.00 video frames)
    
    Tracklist:
    01. Tim Berg - Bromance
    02. Mohombi - Bumpy Ride
    03. Major Lazer - Pon De Floor
    04. Michael Canitrot - You And I
    05. Simon From Deep Divas - Rhythm Of The Night
    06. Benni Bennassi - Spaceship
    07. Dan Dnoy - Turn It Around
    08. Vika Kova - Night Together
    09. Axwell,Ingrosso - Leave The World Behind
    10. Billboard - Wash Away
    11. Alina - Deep In Love
    12. Annagrace - Celebration
    13. Christopher S & Mike Candys - Rhythm Is A Dancer
    14. Robbie Rivera - Closer To The Sun
    15. Fedde Le Grand - Back & Forth
    16. Edmond Dantes - No Way Back
    17. Bodybangers - Bodytalk
    18. Kelly Rowland Feat.David Guetta - Commander
    19. Funk Providers - Little Fantasy
    20. Jeremy De Koste - Drive Me Insane
    21. Granmaster Issy - Don´t Get Me Wrong
    22. Ini Kamoze - Here Comes The Hotstepper
    23. Inna - Hot
    24. Katy Perry - California Girls
    25. Kaskade Feat.Haley - Dinasty
    26. Marc Canova - Free
    27. Master Of South - The Rain
    28. Monrose - Like A Lady
    29. Sergio Mendes - Yemele
    30. Bob Sinclair - Rainbow
    31. Danzel - Under Arrest
    32. Justin Bieber - One Time
    33. Robbie Rivera - Rock The Disco
    34. Static Revenger - Skin I´m In
    35. TV Rock Feat.Rudy - In The Air
    36. R.I.O. - Hot Girl
    37. Bob Sinclair -  I Wanna
    38. Keri Hilson - I Like
    39. Stuart - Free
    40. Roger Sanchez - Turn On The Music
    41. 30H!3 Feat.Kesha - My First Kiss
    42. Enrique Iglesias Feat.Pitbull - I Like It
    43. Bellini - Samba De Janeiro
    44. Sean Kingston - Fire Burning
    45. Robbie Rivera Feat.Juan Magan - Oh Baby
    46. Andrew Spencer - T.N.T.
    47. PH Electro - Englishman In New York
    48. Technotronic - Pump Up The Jam
    49. Axwell - I Found You
    50. Jason Derulo - Ridin Solo
    51. Pablo Ridnt - Artistic Alarm
    52. Fragma - Forever And A Day
    53. Sunloverz - Now That We Found Love
    54. DJ Antoine - Starting Tonight
    55. Lady Gaga - Alejandro
    56. Shakira - Waka Waka
    57. Jasper Forks - River Flows In You
    58. Samantha vs Sabrina - Call Me
    59. Yolanda Be Cool And Dcup - We No Speak Americano
    60. Kaskade Feat.Deamau5 - Move For Me
    
    BONUS :
    Ultra Weekend 6 Megamix (Al B. Rich Remix)
    
    Format                           : MPEG-PS
    File size                        : 480 MiB
    Duration                         : 8mn 59s
    Overall bit rate                 : 7 468 Kbps
    
    Video
    ID                               : 224 (0xE0)
    Format                           : MPEG Video
    Format version                   : Version 2
    Format profile                   : [email protected]
    Format settings, BVOP            : Yes
    Format settings, Matrix          : Default
    Duration                         : 8mn 59s
    Bit rate mode                    : Variable
    Bit rate                         : 5 784 Kbps
    Nominal bit rate                 : 8 000 Kbps
    Width                            : 720 pixels
    Height                           : 480 pixels
    Display aspect ratio             : 4:3
    Frame rate                       : 29.970 fps
    Standard                         : NTSC
    Color space                      : YUV
    Chroma subsampling               : 4:2:0
    Bit depth                        : 8 bits
    Scan type                        : Interlaced
    Scan order                       : Top Field First
    Compression mode                 : Lossy
    Bits/(Pixel*Frame)               : 0.558
    Stream size                      : 372 MiB (77%)
    
    Audio
    ID                               : 160 (0xA0)
    Format                           : PCM
    Format settings, Endianness      : Big
    Format settings, Sign            : Signed
    Muxing mode                      : DVD-Video
    Duration                         : 8mn 59s
    Bit rate mode                    : Constant
    Bit rate                         : 1 536 Kbps
    Channel(s)                       : 2 channels
    Channel positions                : Front: L R
    Sampling rate                    : 48.0 KHz
    Bit depth                        : 16 bits
    Delay relative to video          : -283ms
    Stream size                      : 98.8 MiB (21%)
    
    Tracklist :
    1. Grum – Can’t Shake This Feeling
    2. Chicane vs Natasha Bedingfield – Bruised Water (Michael Woods Full Vocal)
    3. Edward Maya & Vika Jigulina – Stereo Love
    4. Klaas meets Haddaway – What is Love 2K9
    5. deadmau5 feat. Rob Swire – Ghost n Stuff
    6. Mike Candys & Jack Holiday – Insomnia
    7. Jes – Lovesong
    
    Recovery : +5%
    Cover : No
    Compression method : Best
    Type archive : Rar (1x1100MB)
    FILESERVE ENCRYPT LINKS
    ( Click'n'Load with JDownloader )

    Code:
    http://9.bb/8bsT
    HELLSHARE ENCRYPT LINKS
    ( Weblinks, Click'n'Load, DLC, CCF, RSDF )

    Code:
    http://9.bb/8bsf
    ...copy link in browser, wait 5s, click on "SKIP AD", click on "Click´n´Load" or other and download...

    >>LINKS ARE INTERCHANGEABLE<<
    nO pASS
    ...YOU CAN SHARE MY UPLOADS...

 

 

Posting Permissions

  • You may not post new threads
  • You may not post replies
  • You may not post attachments
  • You may not edit your posts
  •