Results 1 to 1 of 1
  1. #1
    Banned www.desirulez.net
    Join Date
    Apr 2011
    Posts
    100

    T

    Post Behind Enemy Lines 2001 BRRip 720p Dual Audio(Hin-Eng)

    Follow us on Social Media









    Behind Enemy Lines 2001 BRRip 720p Dual Audio(Hin-Eng)



    Code:
    General
    Complete name                    : F:\EXDESI.COM\Behind Enemy Lines 2001 BRRip 720p by imkhan -=[TDT]=-\Behind Enemy Lines 2001 BRRip 720p by imkhan -=[TDT]=-.mkv
    Format                           : Matroska
    File size                        : 767 MiB
    Duration                         : 1h 36mn[end credit cut]
    Overall bit rate                 : 1 116 Kbps
    Movie name                       : Behind Enemy Lines 2001 BRRip 720p by imkhan -=[TDT]=-
    Encoded date                     : UTC 2011-04-27 14:31:37
    Writing application              : mkvmerge v4.7.0 ('Just Like You Imagined') built on Apr 21 2011 01:13:14
    Writing library                  : libebml v1.2.0 + libmatroska v1.1.0
    
    Video
    ID                               : 1
    Format                           : AVC
    Format/Info                      : Advanced Video Codec
    Format profile                   : [email protected]
    Format settings, CABAC           : Yes
    Format settings, ReFrames        : 4 frames
    Muxing mode                      : Container [email protected]
    Codec ID                         : V_MPEG4/ISO/AVC
    Duration                         : 1h 36mn
    Bit rate                         : 900 Kbps
    Width                            : 1 280 pixels
    Height                           : 544 pixels
    Display aspect ratio             : 2.35:1
    Frame rate mode                  : Variable
    Frame rate                       : 25.000 fps
    Resolution                       : 24 bits
    Colorimetry                      : 4:2:0
    Scan type                        : Progressive
    Bits/(Pixel*Frame)               : 0.052
    Stream size                      : 620 MiB (81%)
    Title                            : imkhan
    Writing library                  : x264 core 112
    Encoding settings                : cabac=1 / ref=2 / deblock=1:0:0 / analyse=0x1:0x111 / me=hex / subme=6 / psy=1 / psy_rd=1.00:0.00 / mixed_ref=0 / me_range=16 / chroma_me=1 / trellis=0 / 8x8dct=0 / cqm=0 / deadzone=21,11 / fast_pskip=1 / chroma_qp_offset=-2 / threads=6 / sliced_threads=0 / nr=0 / decimate=1 / interlaced=0 / constrained_intra=0 / bframes=2 / b_pyramid=2 / b_adapt=1 / b_bias=0 / direct=1 / weightb=0 / open_gop=0 / weightp=2 / keyint=250 / keyint_min=24 / scenecut=40 / intra_refresh=0 / rc_lookahead=40 / rc=2pass / mbtree=1 / bitrate=900 / ratetol=1.0 / qcomp=0.60 / qpmin=3 / qpmax=51 / qpstep=4 / cplxblur=20.0 / qblur=0.5 / ip_ratio=1.40 / aq=1:1.00
    Language                         : Hindi
    Audio
    ID                               : 2
    Format                           : AC-3
    Format/Info                      : Audio Coding 3
    Codec ID                         : A_AC3
    Duration                         : 1h 36mn
    Bit rate mode                    : Constant
    Bit rate                         : 192 Kbps
    Channel(s)                       : 2 channels
    Channel positions                : L R
    Sampling rate                    : 44.1 KHz
    Video delay                      : 821ms
    Stream size                      : 132 MiB (17%)
    Title                            : imkhan
    Language                         : Hindi












    ~*Single Links*~
    Code:
    http://www.fileserve.com/file/w2GRhw8

 

 

Posting Permissions

  • You may not post new threads
  • You may not post replies
  • You may not post attachments
  • You may not edit your posts
  •