Results 1 to 2 of 2
  1. #1
    Hot Member www.desirulez.net
    Join Date
    Sep 2009
    Posts
    1,215

    T

    Thumbs up Soul Surfer 2011 CAM XVID LKRG

    Follow us on Social Media










    Format;AVI

    File Size:1.31gb

    Video
    ID : 0
    Format : MPEG-4 Visual
    Format profile : Advanced [email protected]
    Format settings, BVOP : Yes
    Format settings, QPel : No
    Format settings, GMC : No warppoints
    Format settings, Matrix : Custom
    Codec ID : XVID
    Codec ID/Hint : XviD
    Duration : 1h 42mn
    Bit rate : 1 694 Kbps
    Width : 720 pixels
    Height : 304 pixels
    Display aspect ratio : 2.35:1
    Frame rate : 23.976 fps
    Color space : YUV
    Chroma subsampling : 4:2:0
    Bit depth : 8 bits
    Scan type : Progressive
    Bits/(Pixel*Frame) : 0.323
    Stream size : 1.21 GiB (93%)
    Writing library : XviD 1.2.1 (UTC 2008-12-04)

    Audio
    ID : 1
    Format : MPEG Audio
    Format version : Version 1
    Format profile : Layer 3
    Codec ID : 55
    Codec ID/Hint : MP3
    Duration : 1h 42mn
    Bit rate mode : Constant
    Bit rate : 128 Kbps
    Channel(s) : 2 channels
    Sampling rate : 44.1 KHz
    Stream size : 93.8 MiB (7%)
    Alignment : Split accross interleaves
    Interleave, duration : 499 ms (11.97 video frames)
    Interleave, preload duration : 500 ms




    Duration:1:42

    Release Date:2011

    Language:English

    Release Notes


    Videown

    Audiown



    Alright here we go with the first cam of soul surfer... wouldn't normally do this but had lots of *****ing and was bored so why not.



    video we had was pretty solid, just did a bit of cleanup on the colors slight denoiser usual video filters didn't need much . minus one of the fattest [...] heads poppin up from time to time. he starts off in the begninning then goes away for most of the movie but comes back for about the last 20 minutes near the end...



    still perfectly watchable imo but your call, if you don't like it reccomend contacting the authorities tellin em that our cam wasn't as good as you paid for (:



    onto audio, real solid cam audio . bit of audience reaction and chatter maybe 3 times throughout movie. cleaned up some extra noise and bit of audience :shit: but other than that was practically line.



    Also our cam starts from the opening sequence and goes all the way to the last ending credit since the movie had some extras after it ends overall another very watchable cam,



    As always 2 samples are included check em out before you d/l










    Code:
    http://www.filesonic.com/file/870028204
    http://www.filesonic.com/file/870055281
    http://www.filesonic.com/file/870067584
    http://www.filesonic.com/file/870071551
    Code:
    http://www.fileserve.com/file/JnRXWP4
    http://www.fileserve.com/file/XrhEnss
    http://www.fileserve.com/file/JUNbrZT
    http://www.fileserve.com/file/cPAwN5f
    Code:
    http://www.duckload.com/dl/oOcr2
    http://www.duckload.com/dl/FOcr2
    http://www.duckload.com/dl/ePcr2
    http://www.duckload.com/dl/qPcr2


  2. #2
    New Arrivals
    Join Date
    May 2011
    Posts
    1

    T

    Default

    gooddddddddddddddd

 

 

Posting Permissions

  • You may not post new threads
  • You may not post replies
  • You may not post attachments
  • You may not edit your posts
  •