Results 1 to 4 of 4
  1. #1
    Hot Member www.desirulez.net
    Join Date
    Feb 2011
    Location
    Bulletproof IP
    Posts
    1,189

    T

    Thumbs up Dum Maaro Dum (2011) - 1CD - SCAM - Rip - XviD [TDT]

    Follow us on Social Media







    Dum Maaro Dum (2011)
    1CD - SCAM - Rip - XviD [TDT]
















    Code:
    Ripper                          : SAIF @ TDT
    Source                          : DJ
    IMDB                            : http://www.imdb.com/title/tt1618430/
    Sample                          : http://www.sendspace.com/file/9o5d8c
    
    General
    Complete name                   : DumMaaroDum2011_-_1CD-SCAM-Rip-XviD-TDT-Up-by-BD-X_Man.avi
    Format                          : AVI
    Format/Info                     : Audio Video Interleave
    File size                       : 670 MiB
    Duration                        : 1h 59mn
    Overall bit rate                : 783 Kbps
    Writing library                 : VirtualDub build 32842/release
    
    Video
    ID                              : 0
    Format                          : MPEG-4 Visual
    Format profile                  : Advanced [email protected]
    Format settings, BVOP           : 2
    Format settings, QPel           : No
    Format settings, GMC            : No warppoints
    Format settings, Matrix         : Default (H.263)
    Codec ID                        : XVID
    Codec ID/Hint                   : XviD
    Duration                        : 1h 59mn
    Bit rate                        : 645 Kbps
    Width                           : 592 pixels
    Height                          : 272 pixels
    Display aspect ratio            : 2.2:1
    Frame rate                      : 23.976 fps
    Color space                     : YUV
    Chroma subsampling              : 4:2:0
    Bit depth                       : 8 bits
    Scan type                       : Progressive
    Compression mode                : Lossy
    Bits/(Pixel*Frame)              : 0.167
    Stream size                     : 552 MiB (82%)
    Writing library                 : XviD 1.2.1 (UTC 2008-12-04)
    
    Audio
    ID                              : 1
    Format                          : MPEG Audio
    Format version                  : Version 1
    Format profile                  : Layer 3
    Mode                            : Joint stereo
    Mode extension                  : MS Stereo
    Codec ID                        : 55
    Codec ID/Hint                   : MP3
    Duration                        : 1h 59mn
    Bit rate mode                   : Constant
    Bit rate                        : 128 Kbps
    Channel(s)                      : 2 channels
    Sampling rate                   : 44.1 KHz
    Compression mode                : Lossy
    Stream size                     : 110 MiB (16%)
    Alignment                       : Split accross interleaves
    Interleave, duration            : 42 ms (1.00 video frame)
    Interleave, preload duration    : 500 ms
    Writing library                 : LAME3.98r
    Encoding settings               : -m j -V 4 -q 2 -lowpass 17 -b 128
    All Credits Goes To SAIF @ TDT (Thanks)

    Single File (Size: 669.88MB)

    Code:
    http://www.fileserve.com/file/Zh6DHVM/This_Is_Not_DMD2011_-_1CD-SCAM-Rip-XviD-TDT-Up-by-BD-X_Man.avi
    Splited Files - (Size: 399MB + 270MB)

    Code:
    http://www.filesonic.com/file/853432754/This_Is_Not_DMD2011_-_1CD-SCAM-Rip-XviD-TDT-Up-by-BD-X_Man.avi.001
    http://www.filesonic.com/file/853432181/This_Is_Not_DMD2011_-_1CD-SCAM-Rip-XviD-TDT-Up-by-BD-X_Man.avi.002
    If file removed again...just reply here, i can Re-upload it any time
    Last edited by X_Man; 04-27-2011 at 12:39 PM. Reason: New Links added

  2. #2
    Hot Member www.desirulez.net
    Join Date
    Feb 2011
    Location
    Bulletproof IP
    Posts
    1,189

    T

    Default

    Single File Removed, New Single Link added

  3. #3
    Hot Member www.desirulez.net
    Join Date
    Feb 2011
    Location
    Bulletproof IP
    Posts
    1,189

    T

    Default

    All files removed again, so Re-uploaded and Fresh New Links added...enjoy

  4. #4
    New Arrivals
    Join Date
    Apr 2011
    Posts
    8

    T

    Default Will DUM MARO DUM Work?

    DUM MARO DUM the title of the movie itself makes people excited to go for the movie. Especially younster will get more eager to watch movie. And thatís how it becomes a much expected movie for audience.
    Attached Images Attached Images

 

 

Posting Permissions

  • You may not post new threads
  • You may not post replies
  • You may not post attachments
  • You may not edit your posts
  •