Results 1 to 1 of 1
  1. #1
    Hot Member www.desirulez.net
    Join Date
    Jan 2011
    Posts
    1,881

    T

    Default Selena Gomez & The Scene - Who Says [New][FULL HD 1080p]

    Follow us on Social Media







    Selena Gomez & The Scene - Who Says [New][FULL HD 1080p]



    Resolution : 1920 x 1080


    Media Info:


    Code:
    Format                           : MPEG-4
    Format profile                   : Base Media / Version 2
    Codec ID                         : mp42
    File size                        : 4.07 MiB
    Duration                         : 3mn 20s
    Overall bit rate                 : 171 Kbps
    Encoded date                     : UTC 2011-03-03 17:46:34
    Tagged date                      : UTC 2011-03-03 17:46:34
    gsst                             : 0
    gstd                             : 200291
    gssd                             : BADC20804HH1299898942703748
    gshh                             : v12.lscache2.c.youtube.com
    
    Video
    ID                               : 1
    Format                           : AVC
    Format/Info                      : Advanced Video Codec
    Format profile                   : [email protected]
    Format settings, CABAC           : Yes
    Format settings, ReFrames        : 1 frame
    Codec ID                         : avc1
    Codec ID/Info                    : Advanced Video Coding
    Duration                         : 3mn 20s
    Bit rate mode                    : Variable
    Bit rate                         : 2 660 Kbps
    Maximum bit rate                 : 9 935 Kbps
    Width                            : 1 920 pixels
    Height                           : 1 080 pixels
    Display aspect ratio             : 16:9
    Frame rate mode                  : Variable
    Frame rate                       : 24.000 fps
    Minimum frame rate               : 23.810 fps
    Maximum frame rate               : 24.390 fps
    Color space                      : YUV
    Chroma subsampling               : 4:2:0
    Bit depth                        : 8 bits
    Scan type                        : Progressive
    Bits/(Pixel*Frame)               : 0.053
    Stream size                      : 63.5 MiB
    Tagged date                      : UTC 2011-03-03 17:46:38
    
    Audio
    ID                               : 2
    Format                           : AAC
    Format/Info                      : Advanced Audio Codec
    Format version                   : Version 4
    Format profile                   : LC
    Format settings, SBR             : No
    Codec ID                         : 40
    Duration                         : 3mn 20s
    Bit rate mode                    : Variable
    Bit rate                         : 123 Kbps
    Maximum bit rate                 : 149 Kbps
    Channel(s)                       : 2 channels
    Channel positions                : Front: L R
    Sampling rate                    : 44.1 KHz
    Stream size                      : 2.95 MiB (72%)
    Title                            : (C) 2007 Google Inc. v08.13.2007.
    Encoded date                     : UTC 2011-03-03 17:46:36
    Tagged date                      : UTC 2011-03-03 17:46:38







    Code:
    http://www.filesonic.com/file/819715601/selena_gomez_and_the_scene-who_says-web-1080p-h264-2011.mkv

    Code:
    http://www.fileserve.com/file/tfehJds/selena_gomez_and_the_scene-who_says-web-1080p-h264-2011.mkv

 

 

Posting Permissions

  • You may not post new threads
  • You may not post replies
  • You may not post attachments
  • You may not edit your posts
  •