Results 1 to 1 of 1
  1. #1
    Super Member www.desirulez.net
    Join Date
    Jan 2011
    Posts
    495

    T

    Default Amir.Khan.v.Paul.McCloskey.PPV.XviD.XS

    Follow us on Social Media







    Amir.Khan.v.Paul.McCloskey.PPV.XviD.XS




    General Information
    Format : AVI
    Format/Info : Audio Video Interleave
    File size : 396 MiB
    Duration : 31mn 20s
    Overall bit rate : 1 766 Kbps


    Video
    ID : 0
    Format : xvid
    Codec ID : xvid
    Duration : 31mn 20s
    Bit rate : 1 497 Kbps
    Width : 640 pixels
    Height : 360 pixels
    Display aspect ratio : 16:9
    Frame rate : 25.000 fps
    Bits/(Pixel*Frame) : 0.260
    Stream size : 336 MiB (85%)


    Audio
    Format : MPEG Audio
    Format version : Version 1
    Format profile : Layer 3
    Mode : Joint stereo
    Mode extension : MS Stereo
    Codec ID : 55
    Codec ID/Hint : MP3
    Duration : 31mn 20s
    Bit rate mode : Constant
    Bit rate : 256 Kbps
    Channel(s) : 2 channels
    Sampling rate : 48.0 KHz
    Compression mode : Lossy
    Stream size : 57.4 MiB (14%)
    Alignment : Aligned on interleaves
    Interleave, duration : 24 ms (0.60 video frame)
    Interleave, preload duration : 504 ms


    Code:
    FILESERVE
    http://www.fileserve.com/file/2Nhn2mK/Amir.Khan.v.Paul.McCloskey.PPV.XviD.XS.avi

 

 

Posting Permissions

  • You may not post new threads
  • You may not post replies
  • You may not post attachments
  • You may not edit your posts
  •