Results 1 to 1 of 1
  1. #1
    Landed To DesiRulez www.desirulez.net
    Join Date
    Feb 2011
    Posts
    23

    T

    Default Ilaignan [2011] [TSK - 1CD - XviD - MP3 - E-Sub] - First On Net !

    Follow us on Social Media








    Movie Title: Ilaignan [2011]
    Cast: Pa Vijay, Meera Jasmine, Remya Nambeesan
    Director: Suresh Krishna
    Music Director: Vidyasagar
    Production: S.Martin
    Release Note: Superb movie, watch with your family !

    Release Log

    Code:
    Format                           : AVI
    Format/Info                      : Audio Video Interleave
    File size                        : 699 MiB
    Duration                         : 2h 25mn
    Overall bit rate                 : 670 Kbps
    
    Video
    ID                               : 0
    Format                           : MPEG-4 Visual
    Format profile                   : Advanced [email protected]
    Format settings, BVOP            : 2
    Format settings, QPel            : No
    Format settings, GMC             : No warppoints
    Format settings, Matrix          : Default (H.263)
    Codec ID                         : XVID
    Codec ID/Hint                    : XviD
    Duration                         : 2h 25mn
    Bit rate                         : 599 Kbps
    Width                            : 608 pixels
    Height                           : 272 pixels
    Display aspect ratio             : 2.25:1
    Frame rate                       : 29.970 fps
    Color space                      : YUV
    Chroma subsampling               : 4:2:0
    Bit depth                        : 8 bits
    Scan type                        : Progressive
    Compression mode                 : Lossy
    Bits/(Pixel*Frame)               : 0.121
    Stream size                      : 625 MiB (89%)
    Writing library                  : XviD 1.2.1 (UTC 2008-12-04)
    
    Audio
    ID                               : 1
    Format                           : MPEG Audio
    Format version                   : Version 2
    Format profile                   : Layer 3
    Mode                             : Joint stereo
    Mode extension                   : MS Stereo
    Codec ID                         : 55
    Codec ID/Hint                    : MP3
    Duration                         : 2h 25mn
    Bit rate mode                    : Constant
    Bit rate                         : 64.0 Kbps
    Channel(s)                       : 2 channels
    Sampling rate                    : 24.0 KHz
    Compression mode                 : Lossy
    Stream size                      : 66.8 MiB (10%)
    Alignment                        : Aligned on interleaves
    Interleave, duration             : 133 ms (4.00 video frames)
    Interleave, preload duration     : 216 ms
    Title                            : TamilRush.Com - TamilRush.Net
    Writing library                  : LAME3.98r
    Encoding settings                : -m j -V 4 -q 2 -lowpass 11 -b 64
    Screenshots




    Click Here --> Download


 

 

Posting Permissions

  • You may not post new threads
  • You may not post replies
  • You may not post attachments
  • You may not edit your posts
  •