Results 1 to 1 of 1
  1. #1
    dR Contributor www.desirulez.net
    Join Date
    Jan 2011
    Posts
    220

    T

    Thumbs up WWE Friday Night Smackdown 2011.04.15 HDTV XviD-KYR

    Follow us on Social Media








    WWE.Friday.Night.Smackdown.2011.04.15.HDTV.XviD-KYR
    XviD | MP3 VBR | 1.1GB


    Video
    ID : 0
    Format : MPEG-4 Visual
    Format profile : Advanced [email protected]
    Format settings, BVOP : Yes
    Format settings, QPel : No
    Format settings, GMC : No warppoints
    Format settings, Matrix : Default (H.263)
    Codec ID : XVID
    Codec ID/Hint : XviD
    Duration : 1h 38mn
    Bit rate : 1 445 Kbps
    Width : 624 pixels
    Height : 352 pixels
    Display aspect ratio : 16:9
    Frame rate : 29.970 fps
    Color space : YUV
    Chroma subsampling : 4:2:0
    Bit depth : 8 bits
    Scan type : Progressive
    Bits/(Pixel*Frame) : 0.220
    Stream size : 1 022 MiB (91%)
    Writing library : XviD 1.3.0.dev55

    Audio
    ID : 1
    Format : MPEG Audio
    Format version : Version 1
    Format profile : Layer 3
    Mode : Joint stereo
    Mode extension : MS Stereo
    Codec ID : 55
    Codec ID/Hint : MP3
    Duration : 1h 38mn
    Bit rate mode : Variable
    Bit rate : 128 Kbps
    Channel(s) : 2 channels
    Sampling rate : 48.0 KHz
    Stream size : 90.6 MiB (8%)
    Alignment : Aligned on interleaves
    Interleave, duration : 24 ms (0.72 video frame)
    Interleave, preload duration : 331 ms
    Writing library : LAME3.92
    Encoding settings : -m j -V 4 -q 2 -lowpass 17.5 --abr 128


    Download Links:-

    Code:
    http://www.filesonic.com/file/653397114/wwe.friday.night.smackdown.2011.04.15.hdtv.xvid-kyr.avi
    Code:
    http://www.duckload.com/download/4633330/wwe.friday.night.smackdown.2011.04.15.hdtv.xvid-kyr.avi
    Code:
    http://www.fileserve.com/file/VncpQ5V/wwe.friday.night.smackdown.2011.04.15.hdtv.xvid-kyr.avi

 

 

Posting Permissions

  • You may not post new threads
  • You may not post replies
  • You may not post attachments
  • You may not edit your posts
  •