Results 1 to 1 of 1
  1. #1
    Banned www.desirulez.net
    Join Date
    Mar 2011
    Posts
    19

    T

    Default The.Company.Men.2011.SCR [-1LinK]

    Follow us on Social Media







    The.Company.Men.2011.SCR [-1LinK]







    Code:
    The.Company.Men.2011.SCR.XViD-nCODE
    
    Format                           : AVI
    Format/Info                      : Audio Video Interleave
    File size                        : 705 MiB
    Duration                         : 1h 44mn
    Overall bit rate                 : 942 Kbps
    Writing application              : AVI-Mux GUI 1.17.8.3, Feb 16 201019:42:50
    Writing library                  : VirtualDub build 32706/release
    
    Video
    ID                               : 0
    Format                           : MPEG-4 Visual
    Format profile                   : Advanced [email protected]
    Format settings, BVOP            : Yes
    Format settings, QPel            : No
    Format settings, GMC             : No warppoints
    Format settings, Matrix          : Default (H.263)
    Codec ID                         : XVID
    Codec ID/Hint                    : XviD
    Duration                         : 1h 44mn
    Bit rate                         : 804 Kbps
    Width                            : 624 pixels
    Height                           : 336 pixels
    Display aspect ratio             : 1.857
    Frame rate                       : 23.976 fps
    Color space                      : YUV
    Chroma subsampling               : 4:2:0
    Bit depth                        : 8 bits
    Scan type                        : Progressive
    Compression mode                 : Lossy
    Bits/(Pixel*Frame)               : 0.160
    Stream size                      : 602 MiB (85%)
    Writing library                  : XviD 1.2.1 (UTC 2008-12-04)
    
    Audio
    ID                               : 1
    Format                           : MPEG Audio
    Format version                   : Version 1
    Format profile                   : Layer 3
    Mode                             : Joint stereo
    Mode extension                   : MS Stereo
    Codec ID                         : 55
    Codec ID/Hint                    : MP3
    Duration                         : 1h 44mn
    Bit rate mode                    : Constant
    Bit rate                         : 128 Kbps
    Channel(s)                       : 2 channels
    Sampling rate                    : 48.0 KHz
    Compression mode                 : Lossy
    Delay relative to video          : 600ms
    Stream size                      : 95.8 MiB (14%)
    Alignment                        : Split accross interleaves
    Interleave, duration             : 42 ms (1.00 video frame)
    Interleave, preload duration     : 500 ms
    Writing library                  : LAME3.98r
    Encoding settings                : -m j -V 4 -q 2 -lowpass 17 -b 128
    
    Source: DVDR
    Used DVDfab, MeGUI, AvsP
    DVDR audio was messy so used Virtualdub to mux and sync audio.
    hope you njoy























    Code:
    http://www.fileserve.com/file/hEYYq4b/The.Company.Men.2011.SCR.XViD.rar




 

 

Posting Permissions

  • You may not post new threads
  • You may not post replies
  • You may not post attachments
  • You may not edit your posts
  •