Results 1 to 1 of 1
  1. #1
    Banned www.desirulez.net
    Join Date
    Mar 2011
    Posts
    19

    T

    Default Drive Angry (2011) TS V2-IMAGiNE [1Link]

    Follow us on Social Media







    Drive Angry (2011) TS V2-IMAGiNE [1Link]









    IMDB:
    Code:
    http://www.imdb.com/title/tt1502404/
    Drive Angry (2011) TS XViD V2 - IMAGiNE

    Info:

    Code:
     Drive Angry 2011 TS XViD v2 - IMAGiNE
    ********************************************************************************************************************
    
    Ripper ...........:IMAGiNE                                         IMDB Rating.......:6.4/10                           
    Video Codec.......:XVID                                            Release Date......:06/03/11
    Audio Codec.......:MP3                                             Theatre Date......:25/02/11
    Audio Bitrate.....:128                                             Runtime...........:1h 32mn
    Subtitles.........:NIL                                             Language..........:ENGLISH
    Resolution........:720 x 480                                     IMDb URL..........: http://www.imdb.com/title/tt1502404/
    
    
    DETAILS:
    
    Video
    ID                               : 0
    Format                           : MPEG-4 Visual
    Format profile                   : Advanced [email protected]
    Format settings, BVOP            : Yes
    Format settings, QPel            : No
    Format settings, GMC             : No warppoints
    Format settings, Matrix          : Default (MPEG)
    Muxing mode                      : Packed bitstream
    Codec ID                         : XVID
    Codec ID/Hint                    : XviD
    Duration                         : 1h 32mn
    Bit rate                         : 1 979 Kbps
    Width                            : 720 pixels
    Height                           : 480 pixels
    Display aspect ratio             : 1.500
    Frame rate                       : 25.000 fps
    Standard                         : NTSC
    Resolution                       : 24 bits
    Colorimetry                      : 4:2:0
    Scan type                        : Progressive
    Bits/(Pixel*Frame)               : 0.229
    Stream size                      : 1.28 GiB (93%)
    Writing library                  : XviD 61
    
    Audio
    ID                               : 1
    Format                           : MPEG Audio
    Format version                   : Version 1
    Format profile                   : Layer 3
    Codec ID                         : 55
    Codec ID/Hint                    : MP3
    Duration                         : 1h 32mn
    Bit rate mode                    : Constant
    Bit rate                         : 128 Kbps
    Channel(s)                       : 2 channels
    Sampling rate                    : 44.1 KHz
    Resolution                       : 16 bits
    Stream size                      : 84.9 MiB (6%)
    Alignment                        : Split accross interleaves
    Interleave, duration             : 40 ms (1.00 video frame)
    Interleave, preload duration     : 500 ms
    
    
    SOURCES:
    
    VIDEO: Cinedub... Thanks
    AUDIO: Thanks matey... Thanks
    Screens::









    Single Link:

    Code:
    http://www.fileserve.com/file/v2BBU7Z/Drive.Angry.2011.TS.XViD.v2.IMAGiNE.avi

 

 

Posting Permissions

  • You may not post new threads
  • You may not post replies
  • You may not post attachments
  • You may not edit your posts
  •