Results 1 to 1 of 1
  1. #1
    Banned www.desirulez.net
    Join Date
    Mar 2011
    Posts
    19

    T

    Default Limitless.2011.TS.XViD[705mb-1LinK]

    Follow us on Social Media







    Limitless.2011.TS.XViD[705mb-1LinK]
    • Limitless.2011.TS.XViD-nCODE






    Code:
    General
    Complete name                    : Limitless.2011.TS.XViD-cooltil
    Format                           : AVI
    Format/Info                      : Audio Video Interleave
    File size                        : 705 MiB
    Duration                         : 1h 35mn
    Overall bit rate                 : 1 037 Kbps
    Writing application              : VirtualDubMod 1.5.10.2 (build 2542/release)
    Writing library                  : VirtualDubMod build 2542/release
    
    Video
    ID                               : 0
    Format                           : MPEG-4 Visual
    Format profile                   : Advanced [email protected]
    Format settings, BVOP            : 2
    Format settings, QPel            : No
    Format settings, GMC             : No warppoints
    Format settings, Matrix          : Default (H.263)
    Codec ID                         : XVID
    Codec ID/Hint                    : XviD
    Duration                         : 1h 35mn
    Bit rate                         : 899 Kbps
    Width                            : 640 pixels
    Height                           : 272 pixels
    Display aspect ratio             : 2.35:1
    Frame rate                       : 25.000 fps
    Color space                      : YUV
    Chroma subsampling               : 4:2:0
    Bit depth                        : 8 bits
    Scan type                        : Progressive
    Compression mode                 : Lossy
    Bits/(Pixel*Frame)               : 0.207
    Stream size                      : 612 MiB (87%)
    Writing library                  : XviD 1.2.1 (UTC 2008-12-04)
    
    Audio
    ID                               : 1
    Format                           : MPEG Audio
    Format version                   : Version 1
    Format profile                   : Layer 3
    Codec ID                         : 55
    Codec ID/Hint                    : MP3
    Duration                         : 1h 35mn
    Bit rate mode                    : Constant
    Bit rate                         : 128 Kbps
    Channel(s)                       : 2 channels
    Sampling rate                    : 44.1 KHz
    Compression mode                 : Lossy
    Stream size                      : 87.1 MiB (12%)
    Alignment                        : Split accross interleaves
    Interleave, duration             : 40 ms (1.00 video frame)
    Interleave, preload duration     : 500 ms
    Writing library                  : LAME3.98.4UURñöÆÉÑ
    
    source: imagine(thx) tweaked a little with a few filters,  hope you njoy!























    Code:
    http://www.fileserve.com/file/xvEH8Nh/Limitless.2011.TS.XViD.avi






 

 

Posting Permissions

  • You may not post new threads
  • You may not post replies
  • You may not post attachments
  • You may not edit your posts
  •