Results 1 to 1 of 1
  1. #1
    Banned www.desirulez.net
    Join Date
    Mar 2011
    Posts
    19

    Default I Am Number Four 2011 TS-iMAGiNE [1LinK]

    Follow us on Social Media





    I Am Number Four 2011 TS-iMAGiNE [1LinK]









    IMDB:

    Code:
    http://www.imdb.com/title/tt1464540/


    Code:
     I Am Number Four TS XViD - IMAGiNE
    ********************************************************************************************************************
    
    Ripper ...........: IMAGiNE                                        IMDB Rating.......:7.8/10                           
    Video Codec.......: XVID                                         Release Date......:28/02/11
    Audio Codec.......:MP3                                           Theatre Date......:18/02/11
    Audio Bitrate.....:128                                              Runtime.......:1h 38mn
    Subtitles.........:NIL                                                 Language..........:ENGLISH
    Resolution...... 720 x 384                                      IMDb URL..........:http://www.imdb.com/title/tt1464540/
    
    
    DETAILS:
    
    Video
    ID                               : 0
    Format                           : MPEG-4 Visual
    Format profile                   : Advanced [email protected]
    Format settings, BVOP            : Yes
    Format settings, QPel            : No
    Format settings, GMC             : No warppoints
    Format settings, Matrix          : Default (MPEG)
    Muxing mode                      : Packed bitstream
    Codec ID                         : XVID
    Codec ID/Hint                    : XviD
    Duration                         : 1h 38mn
    Bit rate                         : 865 Kbps
    Width                            : 720 pixels
    Height                           : 384 pixels
    Display aspect ratio             : 1.875
    Frame rate                       : 25.000 fps
    Resolution                       : 24 bits
    Colorimetry                      : 4:2:0
    Scan type                        : Progressive
    Bits/(Pixel*Frame)               : 0.125
    Stream size                      : 611 MiB (86%)
    Writing library                  : XviD 61
    
    Audio
    ID                               : 1
    Format                           : MPEG Audio
    Format version                   : Version 1
    Format profile                   : Layer 3
    Codec ID                         : 55
    Codec ID/Hint                    : MP3
    Duration                         : 1h 38mn
    Bit rate mode                    : Constant
    Bit rate                         : 128 Kbps
    Channel(s)                       : 2 channels
    Sampling rate                    : 44.1 KHz
    Resolution                       : 16 bits
    Stream size                      : 90.3 MiB (13%)
    Alignment                        : Split accross interleaves
    Interleave, duration             : 40 ms (1.00 video frame)
    Interleave, preload duration     : 500 ms










    Fileserve:
    Code:
    Single Link:
    http://www.fileserve.com/file/xXxsK6T/_I_Am_Number_Four_TS_XViD_-_IMAGiNE.avi

 

 

Posting Permissions

  • You may not post new threads
  • You may not post replies
  • You may not post attachments
  • You may not edit your posts
  •