Results 1 to 2 of 2
  1. #1
    dR Contributor www.desirulez.net
    Join Date
    Jun 2010
    Location
    India
    Posts
    2,470

    T

    Default [MULTI+MU+RS] WWE.Wrestlemania.27.PPV.HDTV.XviD-FWG RE-UPLOAD

    Follow us on Social Media







    WWE.Wrestlemania.27.PPV.HDTV.XviD-FWG

    Code:
    Video 
    ID : 0 
    Format : MPEG-4 Visual 
    Format profile : Advanced [email protected] 
    Format settings, BVOP : 1 
    Format settings, QPel : No 
    Format settings, GMC : No warppoints 
    Format settings, Matrix : Default (H.263) 
    Muxing mode : Packed bitstream 
    Codec ID : XVID 
    Codec ID/Hint : XviD 
    Duration : 3h 58mn 
    Bit rate : 1 091 Kbps 
    Width : 624 pixels 
    Height : 352 pixels 
    Display aspect ratio : 16:9 
    Frame rate : 25.000 fps 
    Color space : YUV 
    Chroma subsampling : 4:2:0 
    Bit depth : 8 bits 
    Scan type : Progressive 
    Compression mode : Lossy 
    Bits/(Pixel*Frame) : 0.199 
    Stream size : 1.82 GiB (89%) 
    Writing library : XviD 1.0.3 (UTC 2004-12-20) 
    
    Audio 
    ID : 1 
    Format : MPEG Audio 
    Format version : Version 1 
    Format profile : Layer 3 
    Mode : Joint stereo 
    Mode extension : MS Stereo 
    Codec ID : 55 
    Codec ID/Hint : MP3 
    Duration : 5h 8mn 
    Bit rate mode : Constant 
    Bit rate : 128 Kbps 
    Channel(s) : 2 channels 
    Sampling rate : 48.0 KHz 
    Compression mode : Lossy 
    Stream size : 218 MiB (10%) 
    Alignment : Aligned on interleaves 
    Interleave, duration : 40 ms (1.00 video frame) 
    Interleave, preload duration : 480 ms



    1 Link Download

    Code:
    http://www.fileserve.com/file/68C2BTC/WWE.Wrestlemania.27.PPV.HDTV.XviD-FWG.pt1.avi
    http://www.fileserve.com/file/abnAwwq/WWE.Wrestlemania.27.PPV.HDTV.XviD-FWG.pt2.avi
    http://www.fileserve.com/file/RrqsEbH/WWE.Wrestlemania.27.PPV.HDTV.XviD-FWG.pt3.avi


    Code:
    http://www.megaupload.com/?d=YJF3JGTA
    http://www.megaupload.com/?d=FH8C1ZWX
    http://www.megaupload.com/?d=MAHUQXJV
    http://www.megaupload.com/?d=YYGTZL5N
    http://www.megaupload.com/?d=G87OLJS8
    http://www.megaupload.com/?d=4FVSLEOC
    Code:
    http://rapidshare.com/files/456202068/WWE.Wrestlemania.27.PPV.HDTV.XviD-FWG.pt1.part1.rar
    http://rapidshare.com/files/456196799/WWE.Wrestlemania.27.PPV.HDTV.XviD-FWG.pt1.part2.rar
    http://rapidshare.com/files/456203541/WWE.Wrestlemania.27.PPV.HDTV.XviD-FWG.pt2.part1.rar
    http://rapidshare.com/files/456200176/WWE.Wrestlemania.27.PPV.HDTV.XviD-FWG.pt2.part2.rar
    http://rapidshare.com/files/456203168/WWE.Wrestlemania.27.PPV.HDTV.XviD-FWG.pt3.part1.rar
    http://rapidshare.com/files/456202565/WWE.Wrestlemania.27.PPV.HDTV.XviD-FWG.pt3.part2.rar
    Code:
    http://hotfile.com/dl/113566803/b644cdf/WWE.Wrestlemania.27.PPV.HDTV.XviD-FWG.pt1.part1.rar.html
    http://hotfile.com/dl/113566648/170a3d9/WWE.Wrestlemania.27.PPV.HDTV.XviD-FWG.pt1.part2.rar.html
    http://hotfile.com/dl/113566870/ca6ae7a/WWE.Wrestlemania.27.PPV.HDTV.XviD-FWG.pt2.part1.rar.html
    http://hotfile.com/dl/113566705/ce65a22/WWE.Wrestlemania.27.PPV.HDTV.XviD-FWG.pt2.part2.rar.html
    http://hotfile.com/dl/113567192/e06b6b3/WWE.Wrestlemania.27.PPV.HDTV.XviD-FWG.pt3.part1.rar.html
    http://hotfile.com/dl/113567219/ccf7c31/WWE.Wrestlemania.27.PPV.HDTV.XviD-FWG.pt3.part2.rar.html

  2. #2
    Senior Member www.desirulez.net
    Join Date
    May 2011
    Location
    Türkiye (Turkey)
    Posts
    110

    T

    Default

    Thanks (Teşekkürler).

 

 

Posting Permissions

  • You may not post new threads
  • You may not post replies
  • You may not post attachments
  • You may not edit your posts
  •