Results 1 to 1 of 1
  1. #1

    Default WWE.NXT.2011.04.05.WebRip.x264

    Follow us on Social Media







    WWE.NXT.2011.04.05.WebRip.x264




    General
    Complete name : WWE.NXT.2011.04.05.WebRip.X264.mp4
    Format : MPEG-4
    Format profile : Base Media
    Codec ID : isom
    File size : 277 MiB
    Duration : 52mn 28s
    Overall bit rate : 737 Kbps
    Writing application : Lavf52.32.0

    Video
    ID : 1
    Format : AVC
    Format/Info : Advanced Video Codec
    Format profile : [email protected]
    Format settings, CABAC : Yes
    Format settings, ReFrames : 2 frames
    Codec ID : avc1
    Codec ID/Info : Advanced Video Coding
    Duration : 52mn 27s
    Bit rate mode : Variable
    Bit rate : 622 Kbps
    Width : 704 pixels
    Height : 384 pixels
    Display aspect ratio : 16:9
    Frame rate mode : Variable
    Frame rate : 15.000 fps
    Original frame rate : 29.970 fps
    Minimum frame rate : 1.033 fps
    Maximum frame rate : 29.970 fps
    Color space : YUV
    Chroma subsampling : 4:2:0
    Bit depth : 8 bits
    Scan type : Progressive
    Bits/(Pixel*Frame) : 0.153
    Stream size : 233 MiB (84%)

    Audio
    ID : 2
    Format : AAC
    Format/Info : Advanced Audio Codec
    Format profile : LC
    Codec ID : 40
    Duration : 52mn 28s
    Bit rate mode : Variable
    Bit rate : 111 Kbps
    Channel(s) : 2 channels
    Channel positions : Front: L R
    Sampling rate : 48.0 KHz
    Compression mode : Lossy
    Stream size : 41.8 MiB (15%)

    Code:
    oron

    http://oron.com/8ekzwtyd54vx/KoOora.....X264.mp4.html

    --

    filehook
    http://filehook.com/xs5fo5xwx7zn/KoO....X264.mp4.html

 

 

Posting Permissions

  • You may not post new threads
  • You may not post replies
  • You may not post attachments
  • You may not edit your posts
  •