Results 1 to 1 of 1
  1. #1
    shawn rebecca
    Guest

    Exclamation ]WWE.Wrestlemania.27.PPV.HDTV.720p.x264.MKV.AVC-FWG

    Follow us on Social Media







    WWE.Wrestlemania.27.PPV.HDTV.720p.x264.MKV.AVC-FWG



    ***File Info***
    Source: 1080i High Definition capture from SBO HD2 at 13MB/s, compressed to 720p HDTV.

    Video
    ID : 2
    Format : AVC
    Format/Info : Advanced Video Codec
    Format profile : [email protected]
    Format settings, CABAC : Yes
    Format settings, ReFrames : 3 frames
    Muxing mode : Header stripping
    Codec ID : V_MPEG4/ISO/AVC
    Duration : 3h 58mn
    Bit rate mode : Constant
    Bit rate : 3 763 Kbps
    Nominal bit rate : 4 000 Kbps / 4 000 Kbps
    Width : 1 280 pixels
    Height : 720 pixels
    Display aspect ratio : 16:9
    Frame rate : 25.000 fps
    Color space : YUV
    Chroma subsampling : 4:2:0
    Bit depth : 8 bits
    Scan type : Progressive
    Bits/(Pixel*Frame) : 0.163
    Stream size : 6.26 GiB (89%)
    Writing library : x264 core 112


    Audio
    ID : 1
    Format : AC-3
    Format/Info : Audio Coding 3
    Mode extension : CM (complete main)
    Muxing mode : Header stripping
    Codec ID : A_AC3
    Duration : 3h 58mn
    Bit rate mode : Constant
    Bit rate : 384 Kbps
    Channel(s) : 2 channels
    Channel positions : Front: L R
    Sampling rate : 48.0 KHz
    Bit depth : 16 bits
    Compression mode : Lossy
    Stream size : 655 MiB (9%
    Code:
    http://www.fileserve.com/file/3NGV65r/WWE.Wrestlemania.27.PPV.HDTV..720p.x264.MKV.AVC-FWG.mkv.007
    http://www.fileserve.com/file/RZrR6f8/WWE.Wrestlemania.27.PPV.HDTV..720p.x264.MKV.AVC-FWG.mkv.002
    http://www.fileserve.com/file/5JESeCk/WWE.Wrestlemania.27.PPV.HDTV..720p.x264.MKV.AVC-FWG.mkv.009
    http://www.fileserve.com/file/r6x62bN/WWE.Wrestlemania.27.PPV.HDTV..720p.x264.MKV.AVC-FWG.mkv.008
    http://www.fileserve.com/file/79MUgBu/WWE.Wrestlemania.27.PPV.HDTV..720p.x264.MKV.AVC-FWG.mkv.006
    http://www.fileserve.com/file/gVB4U2k/WWE.Wrestlemania.27.PPV.HDTV..720p.x264.MKV.AVC-FWG.mkv.003
    http://www.fileserve.com/file/tQ4j7jr/WWE.Wrestlemania.27.PPV.HDTV..720p.x264.MKV.AVC-FWG.mkv.001
    http://www.fileserve.com/file/m6eQAUp/WWE.Wrestlemania.27.PPV.HDTV..720p.x264.MKV.AVC-FWG.mkv.004
    http://www.fileserve.com/file/raY8HVU/WWE.Wrestlemania.27.PPV.HDTV..720p.x264.MKV.AVC-FWG.mkv.005

 

 

Posting Permissions

  • You may not post new threads
  • You may not post replies
  • You may not post attachments
  • You may not edit your posts
  •