Results 1 to 1 of 1
  1. #1
    New Arrivals
    Join Date
    Apr 2011
    Posts
    1

    Default [MULTI] WWE.Wrestlemania.27.PPV.HDTV.XviD-FWG

    Follow us on Social Media







    WWE.Wrestlemania.27.PPV.HDTV.XviD-FWG

    Code:
    Video
    ID                              : 0
    Format                          : MPEG-4 Visual
    Format profile                  : Advanced [email protected]
    Format settings, BVOP            : 1
    Format settings, QPel            : No
    Format settings, GMC            : No warppoints
    Format settings, Matrix          : Default (H.263)
    Muxing mode                      : Packed bitstream
    Codec ID                        : XVID
    Codec ID/Hint                    : XviD
    Duration                        : 3h 58mn
    Bit rate                        : 1 091 Kbps
    Width                            : 624 pixels
    Height                          : 352 pixels
    Display aspect ratio            : 16:9
    Frame rate                      : 25.000 fps
    Color space                      : YUV
    Chroma subsampling              : 4:2:0
    Bit depth                        : 8 bits
    Scan type                        : Progressive
    Compression mode                : Lossy
    Bits/(Pixel*Frame)              : 0.199
    Stream size                      : 1.82 GiB (89%)
    Writing library                  : XviD 1.0.3 (UTC 2004-12-20)
    
    Audio
    ID                              : 1
    Format                          : MPEG Audio
    Format version                  : Version 1
    Format profile                  : Layer 3
    Mode                            : Joint stereo
    Mode extension                  : MS Stereo
    Codec ID                        : 55
    Codec ID/Hint                    : MP3
    Duration                        : 5h 8mn
    Bit rate mode                    : Constant
    Bit rate                        : 128 Kbps
    Channel(s)                      : 2 channels
    Sampling rate                    : 48.0 KHz
    Compression mode                : Lossy
    Stream size                      : 218 MiB (10%)
    Alignment                        : Aligned on interleaves
    Interleave, duration            : 40 ms (1.00 video frame)
    Interleave, preload duration    : 480 ms
    Code:
    >>400 MB PARTS<<
    
    X7
    
    http://x7.to/554ieg
    http://x7.to/or00d8
    http://x7.to/crmb64
    http://x7.to/otx2zl
    http://x7.to/s3tniy
    http://x7.to/knnmd5
    
    UPLOADED
    
    http://uploaded.to/file/248ehlu0
    http://uploaded.to/file/gv2338zb
    http://uploaded.to/file/47x5fcgw
    http://uploaded.to/file/l21wk1cw
    http://uploaded.to/file/bgg1pkut
    http://uploaded.to/file/vc8f8kyl
    
    NETLOAD
    
    http://netload.in/dateiFPHmK42TOL/WM.XXVII.PPV.HDTV.XviD-FWG.part1.rar.htm
    http://netload.in/dateiZntWf49Kpy/WM.XXVII.PPV.HDTV.XviD-FWG.part2.rar.htm
    http://netload.in/dateioyiJqKL4Nv/WM.XXVII.PPV.HDTV.XviD-FWG.part3.rar.htm
    http://netload.in/dateiIEjYGD6Oah/WM.XXVII.PPV.HDTV.XviD-FWG.part4.rar.htm
    http://netload.in/dateihPGoSnqhUF/WM.XXVII.PPV.HDTV.XviD-FWG.part5.rar.htm
    http://netload.in/dateiPEQJ7RAY2c/WM.XXVII.PPV.HDTV.XviD-FWG.part6.rar.htm
    
    FILESONIC
    
    http://www.filesonic.com/file/488796164/WM.XXVII.PPV.HDTV.XviD-FWG.part1.rar
    http://www.filesonic.com/file/488796214/WM.XXVII.PPV.HDTV.XviD-FWG.part2.rar
    http://www.filesonic.com/file/488817884/WM.XXVII.PPV.HDTV.XviD-FWG.part3.rar
    http://www.filesonic.com/file/488817924/WM.XXVII.PPV.HDTV.XviD-FWG.part4.rar
    http://www.filesonic.com/file/488897374/WM.XXVII.PPV.HDTV.XviD-FWG.part5.rar
    http://www.filesonic.com/file/488897424/WM.XXVII.PPV.HDTV.XviD-FWG.part6.rar
    
    BITSHARE
    
    http://bitshare.com/files/4hstog3i/WM.XXVII.PPV.HDTV.XviD-FWG.part1.rar.html
    http://bitshare.com/files/ubojig9g/WM.XXVII.PPV.HDTV.XviD-FWG.part2.rar.html
    http://bitshare.com/files/gxn1mrnl/WM.XXVII.PPV.HDTV.XviD-FWG.part3.rar.html
    http://bitshare.com/files/mjib7i1j/WM.XXVII.PPV.HDTV.XviD-FWG.part4.rar.html
    http://bitshare.com/files/lw7xuoqi/WM.XXVII.PPV.HDTV.XviD-FWG.part5.rar.html
    http://bitshare.com/files/pq1abm58/WM.XXVII.PPV.HDTV.XviD-FWG.part6.rar.html
    
    >> ONE LiNKS <<
    
    CD1 - http://turbobit.net/lyvru12398ai.html
    CD2 - http://turbobit.net/657eea5y6qce.html
    CD3 - http://turbobit.net/nlkp0ju9jt26.html
    
    CD1 - http://x7.to/ap6pl8
    CD2 - http://x7.to/8dc9jq
    CD3 - http://x7.to/s60ryt
    
    CD1 - http://netload.in/datei22eABZDONq/WM.XXVII.PPV.HDTV.XviD-FWG.CD1.avi.htm
    CD2 - http://netload.in/datei4tky1JXHBE/WM.XXVII.PPV.HDTV.XviD-FWG.CD2.avi.htm
    CD3 - http://netload.in/datei1PBeH2OT1k/WM.XXVII.PPV.HDTV.XviD-FWG.CD3.avi.htm
    
    CD1 - http://www.fileserve.com/file/NVWNbXy
    CD2 - http://www.fileserve.com/file/MkqTwmC
    CD3 - http://www.fileserve.com/file/cuQuE6u
    
    CD1 - http://bitshare.com/files/7p5pl7qa/WM.XXVII.PPV.HDTV.XviD-FWG.CD1.avi.html
    CD2 - http://bitshare.com/files/upmrrf30/WM.XXVII.PPV.HDTV.XviD-FWG.CD2.avi.html
    CD3 - http://bitshare.com/files/1135l6pa/WM.XXVII.PPV.HDTV.XviD-FWG.CD3.avi.html
    
    CD1 - http://uploadspace.pl/plikIyOS3enQRzC/WM.XXVII.PPV.HDTV.XviD-FWG.CD1.avi.htm
    CD2 - http://uploadspace.pl/plikq6hpQadk0Jl/WM.XXVII.PPV.HDTV.XviD-FWG.CD2.avi.htm
    CD3 - http://uploadspace.pl/plikFVRXNhQ8Ex9/WM.XXVII.PPV.HDTV.XviD-FWG.CD3.avi.htm
    
    CD1 - http://filehook.com/07ownr0vqslt/WM.XXVII.PPV.HDTV.XviD-FWG.CD1.avi.html
    CD2 - http://filehook.com/73l1lg3nrmrf/WM.XXVII.PPV.HDTV.XviD-FWG.CD2.avi.html
    CD3 - http://filehook.com/ozqoyg9nnsf4/WM.XXVII.PPV.HDTV.XviD-FWG.CD3.avi.html

 

 

Posting Permissions

  • You may not post new threads
  • You may not post replies
  • You may not post attachments
  • You may not edit your posts
  •