Results 1 to 4 of 4
  1. #1
    shawn rebecca
    Guest

    Lightbulb WWE.Wrestlemania.27.PPV.HDTV.XviD-FWG

    Follow us on Social Media







    WWE.Wrestlemania.27.PPV.HDTV.XviD-FWG


    Video
    ID : 0
    Format : MPEG-4 Visual
    Format profile : Advanced [email protected]
    Format settings, BVOP : 1
    Format settings, QPel : No
    Format settings, GMC : No warppoints
    Format settings, Matrix : Default (H.263)
    Muxing mode : Packed bitstream
    Codec ID : XVID
    Codec ID/Hint : XviD
    Duration : 3h 58mn
    Bit rate : 1 091 Kbps
    Width : 624 pixels
    Height : 352 pixels
    Display aspect ratio : 16:9
    Frame rate : 25.000 fps
    Color space : YUV
    Chroma subsampling : 4:2:0
    Bit depth : 8 bits
    Scan type : Progressive
    Compression mode : Lossy
    Bits/(Pixel*Frame) : 0.199
    Stream size : 1.82 GiB (89%)
    Writing library : XviD 1.0.3 (UTC 2004-12-20)

    Audio
    ID : 1
    Format : MPEG Audio
    Format version : Version 1
    Format profile : Layer 3
    Mode : Joint stereo
    Mode extension : MS Stereo
    Codec ID : 55
    Codec ID/Hint : MP3
    Duration : 5h 8mn
    Bit rate mode : Constant
    Bit rate : 128 Kbps
    Channel(s) : 2 channels
    Sampling rate : 48.0 KHz
    Compression mode : Lossy
    Stream size : 218 MiB (10%)
    Alignment : Aligned on interleaves
    Interleave, duration : 40 ms (1.00 video frame)
    Interleave, preload duration : 480 ms
    Code:
    http://www.fileserve.com/file/gPbGede/WWE.Wrestlemania.27.PPV.HDTV.XviD-FWG.pt1.avi.avi
    http://www.fileserve.com/file/4HaBmdP/WWE.Wrestlemania.27.PPV.HDTV.XviD-FWG.pt2.avi.avi
    http://www.fileserve.com/file/zchCJ4G/WWE.Wrestlemania.27.PPV.HDTV.XviD-FWG.pt3.avi.avi
    Last edited by shawn rebecca; 04-04-2011 at 01:02 PM.

  2. #2
    New Arrivals
    Join Date
    Feb 2011
    Posts
    4

    T

    Default

    thx!!!

  3. #3
    shawn rebecca
    Guest

    Default

    Welcome !

  4. #4
    shawn rebecca
    Guest

    Default

    Updated

 

 

Posting Permissions

  • You may not post new threads
  • You may not post replies
  • You may not post attachments
  • You may not edit your posts
  •