Results 1 to 3 of 3
  1. #1
    dR Contributor www.desirulez.net
    Join Date
    Jun 2010
    Location
    India
    Posts
    2,470

    T

    Default [MULTI+MU+RS] WWE.Wrestlemania.27.PPV.HDTV.XviD-FWG

    Follow us on Social Media







    WWE.Wrestlemania.27.PPV.HDTV.XviD-FWG

    Code:
    Video 
    ID : 0 
    Format : MPEG-4 Visual 
    Format profile : Advanced [email protected] 
    Format settings, BVOP : 1 
    Format settings, QPel : No 
    Format settings, GMC : No warppoints 
    Format settings, Matrix : Default (H.263) 
    Muxing mode : Packed bitstream 
    Codec ID : XVID 
    Codec ID/Hint : XviD 
    Duration : 3h 58mn 
    Bit rate : 1 091 Kbps 
    Width : 624 pixels 
    Height : 352 pixels 
    Display aspect ratio : 16:9 
    Frame rate : 25.000 fps 
    Color space : YUV 
    Chroma subsampling : 4:2:0 
    Bit depth : 8 bits 
    Scan type : Progressive 
    Compression mode : Lossy 
    Bits/(Pixel*Frame) : 0.199 
    Stream size : 1.82 GiB (89%) 
    Writing library : XviD 1.0.3 (UTC 2004-12-20) 
    
    Audio 
    ID : 1 
    Format : MPEG Audio 
    Format version : Version 1 
    Format profile : Layer 3 
    Mode : Joint stereo 
    Mode extension : MS Stereo 
    Codec ID : 55 
    Codec ID/Hint : MP3 
    Duration : 5h 8mn 
    Bit rate mode : Constant 
    Bit rate : 128 Kbps 
    Channel(s) : 2 channels 
    Sampling rate : 48.0 KHz 
    Compression mode : Lossy 
    Stream size : 218 MiB (10%) 
    Alignment : Aligned on interleaves 
    Interleave, duration : 40 ms (1.00 video frame) 
    Interleave, preload duration : 480 ms



    1 Link Download

    Code:
    http://www.fileserve.com/file/dJzBAqb/WWE.Wrestlemania.27.PPV.HDTV.XviD-FWG.pt1.avi
    http://www.fileserve.com/file/ckJvzvr/WWE.Wrestlemania.27.PPV.HDTV.XviD-FWG.pt2.avi 
    http://www.fileserve.com/file/G4mNrVV/WWE.Wrestlemania.27.PPV.HDTV.XviD-FWG.pt3.avi


    Code:
    http://www.megaupload.com/?d=FSHAENF1 
    http://www.megaupload.com/?d=WDZWQDOM 
    http://www.megaupload.com/?d=JHRRMCBL 
    http://www.megaupload.com/?d=JVWBF3PQ
    http://www.megaupload.com/?d=NUJS8U0R
    http://www.megaupload.com/?d=F2NLICHS
    http://www.megaupload.com/?d=O91OOBOX
    http://www.megaupload.com/?d=5PV5PMFV
    http://www.megaupload.com/?d=K3T1BIU8
    Code:
    http://rapidshare.com/files/455797151/WWE.Wrestlemania.27.PPV.HDTV.XviD-FWG.pt1.avi.part1.rar 
    http://rapidshare.com/files/455797087/WWE.Wrestlemania.27.PPV.HDTV.XviD-FWG.pt1.avi.part2.rar 
    http://rapidshare.com/files/455797059/WWE.Wrestlemania.27.PPV.HDTV.XviD-FWG.pt1.avi.part3.rar 
    http://rapidshare.com/files/455800806/WWE.Wrestlemania.27.PPV.HDTV.XviD-FWG.pt2.part1.rar
    http://rapidshare.com/files/455800823/WWE.Wrestlemania.27.PPV.HDTV.XviD-FWG.pt2.part2.rar
    http://rapidshare.com/files/455800451/WWE.Wrestlemania.27.PPV.HDTV.XviD-FWG.pt2.part3.rar
    http://rapidshare.com/files/455804093/WWE.Wrestlemania.27.PPV.HDTV.XviD-FWG.pt3.part1.rar
    http://rapidshare.com/files/455803993/WWE.Wrestlemania.27.PPV.HDTV.XviD-FWG.pt3.part2.rar
    http://rapidshare.com/files/455803805/WWE.Wrestlemania.27.PPV.HDTV.XviD-FWG.pt3.part3.rar
    Code:
    http://hotfile.com/dl/113246683/6a890d3/WWE.Wrestlemania.27.PPV.HDTV.XviD-FWG.pt1.avi.part1.rar.html 
    http://hotfile.com/dl/113246628/3486f2f/WWE.Wrestlemania.27.PPV.HDTV.XviD-FWG.pt1.avi.part2.rar.html 
    http://hotfile.com/dl/113246643/fba7705/WWE.Wrestlemania.27.PPV.HDTV.XviD-FWG.pt1.avi.part3.rar.html 
    http://hotfile.com/dl/113250160/f381e0c/WWE.Wrestlemania.27.PPV.HDTV.XviD-FWG.pt2.part1.rar.html
    http://hotfile.com/dl/113250168/7473603/WWE.Wrestlemania.27.PPV.HDTV.XviD-FWG.pt2.part2.rar.html
    http://hotfile.com/dl/113249930/4804757/WWE.Wrestlemania.27.PPV.HDTV.XviD-FWG.pt2.part3.rar.html
    http://hotfile.com/dl/113253403/fb437d4/WWE.Wrestlemania.27.PPV.HDTV.XviD-FWG.pt3.part1.rar.html
    http://hotfile.com/dl/113253319/4dbd19b/WWE.Wrestlemania.27.PPV.HDTV.XviD-FWG.pt3.part2.rar.html
    http://hotfile.com/dl/113253181/5d085d0/WWE.Wrestlemania.27.PPV.HDTV.XviD-FWG.pt3.part3.rar.html
    Code:
    http://depositfiles.com/en/files/80isrnzzo
    http://depositfiles.com/en/files/d06sn2ds0
    http://depositfiles.com/en/files/qcvlp1kgf
    http://depositfiles.com/en/files/fpcbnh9vz
    http://depositfiles.com/en/files/xhpvo6yq1
    http://depositfiles.com/en/files/4e2d22w30
    http://depositfiles.com/en/files/m5iij84hs
    http://depositfiles.com/en/files/kjt3jsluj
    http://depositfiles.com/en/files/3o7cevypp
    Last edited by Ash; 04-04-2011 at 01:25 PM.

  2. #2
    Landed To DesiRulez www.desirulez.me
    Join Date
    Jan 2011
    Posts
    29

    T

    Default

    Thx~ aa92

  3. #3
    Super Member www.desirulez.net
    Join Date
    Jan 2011
    Posts
    495

    T

    Default

    I need single link

 

 

Posting Permissions

  • You may not post new threads
  • You may not post replies
  • You may not post attachments
  • You may not edit your posts
  •