Results 1 to 1 of 1
  1. #1
    Landed To DesiRulez www.desirulez.net
    Join Date
    Feb 2011
    Posts
    23

    T

    Default Mudhal Kadhal Mazhai [2011] [Lotus - 1CD - XviD - MP3] [ Single Link + Mirrors]

    Follow us on Social Media








    Movie Title: Mudhal Kadhal Mazhai [2011]
    Cast: Mahenrdran, Suja, Nizhalgal Ravi, Rajesh
    Director: Mathivanan KR
    Music Director: Chanakya
    Production: Maruthi Global Arts
    Release Note: Mahenrdran 1st movie as Hero

    Release Log

    Code:
    Format                           : AVI
    Format/Info                      : Audio Video Interleave
    File size                        : 692 MiB
    Duration                         : 1h 56mn
    Overall bit rate                 : 830 Kbps
    
    Video
    ID                               : 0
    Format                           : MPEG-4 Visual
    Format profile                   : Advanced [email protected]
    Format settings, BVOP            : 2
    Format settings, QPel            : No
    Format settings, GMC             : No warppoints
    Format settings, Matrix          : Default (H.263)
    Codec ID                         : XVID
    Codec ID/Hint                    : XviD
    Duration                         : 1h 56mn
    Bit rate                         : 759 Kbps
    Width                            : 608 pixels
    Height                           : 272 pixels
    Display aspect ratio             : 2.25:1
    Frame rate                       : 29.970 fps
    Color space                      : YUV
    Chroma subsampling               : 4:2:0
    Bit depth                        : 8 bits
    Scan type                        : Progressive
    Compression mode                 : Lossy
    Bits/(Pixel*Frame)               : 0.153
    Stream size                      : 633 MiB (91%)
    Writing library                  : XviD 1.2.1 (UTC 2008-12-04)
    
    Audio
    ID                               : 1
    Format                           : MPEG Audio
    Format version                   : Version 2
    Format profile                   : Layer 3
    Mode                             : Joint stereo
    Mode extension                   : MS Stereo
    Codec ID                         : 55
    Codec ID/Hint                    : MP3
    Duration                         : 1h 56mn
    Bit rate mode                    : Constant
    Bit rate                         : 64.0 Kbps
    Channel(s)                       : 2 channels
    Sampling rate                    : 24.0 KHz
    Compression mode                 : Lossy
    Stream size                      : 53.3 MiB (8%)
    Alignment                        : Aligned on interleaves
    Interleave, duration             : 133 ms (4.00 video frames)
    Interleave, preload duration     : 216 ms
    Title                            : TamilRush.Com - TamilRush.Net
    Writing library                  : LAME3.98r
    Encoding settings                : -m j -V 4 -q 2 -lowpass 11 -b 64

    Screenshots




    Code:
    http://www.megaupload.com/?d=PX7S91AJ
    http://www.megaupload.com/?d=HRZ3XNVB
    http://www.megaupload.com/?d=XDC622E9
    http://www.megaupload.com/?d=S8TQBDI1
    Code:
    http://hotfile.com/dl/112747352/99fcf16/Mudhal_Kadhal_Mazhai_2011_Lotus_-_1CD_-_XviD_-_MP3_-_TamilRush.Com.part1.rar.html
    http://hotfile.com/dl/112749346/09d4007/Mudhal_Kadhal_Mazhai_2011_Lotus_-_1CD_-_XviD_-_MP3_-_TamilRush.Com.part2.rar.html
    http://hotfile.com/dl/112756563/81fb18a/Mudhal_Kadhal_Mazhai_2011_Lotus_-_1CD_-_XviD_-_MP3_-_TamilRush.Com.part3.rar.html
    http://hotfile.com/dl/112745596/c91dd2b/Mudhal_Kadhal_Mazhai_2011_Lotus_-_1CD_-_XviD_-_MP3_-_TamilRush.Com.part4.rar.html
    Code:
    Single Link:
    
    http://www.megaupload.com/?d=Z8Y4FG0M
    Code:
    Single Link:
    
    http://depositfiles.com/de/files/vf9uc5qa6


    Whenever you share give credits to "Adhitya @ TamilRush.com"

 

 

Posting Permissions

  • You may not post new threads
  • You may not post replies
  • You may not post attachments
  • You may not edit your posts
  •