Results 1 to 1 of 1
  1. #1
    Landed To DesiRulez www.desirulez.net
    Join Date
    Feb 2011
    Posts
    23

    T

    Default Sattapadi Kutram [2011] [TC - 1CD - XviD - MP3]

    Follow us on Social Media








    Movie Title: Sattapadi Kutram [2011]
    Cast: Sathyaraj, Vikranth, Harish Kalyan, Seeman, Bhanu & Komal Sharma
    Director: S. A. Chandrasekhar
    Music Director: Vijay Antony
    Production: Staar Makers
    Release Note: Something different :heeyyy:

    Release Log

    Code:
    Format                           : AVI
    Format/Info                      : Audio Video Interleave
    File size                        : 723 MiB
    Duration                         : 2h 30mn
    Overall bit rate                 : 670 Kbps
    
    Video
    ID                               : 0
    Format                           : MPEG-4 Visual
    Format profile                   : Advanced [email protected]
    Format settings, BVOP            : 2
    Format settings, QPel            : No
    Format settings, GMC             : No warppoints
    Format settings, Matrix          : Default (H.263)
    Codec ID                         : XVID
    Codec ID/Hint                    : XviD
    Duration                         : 2h 30mn
    Bit rate                         : 598 Kbps
    Width                            : 592 pixels
    Height                           : 256 pixels
    Display aspect ratio             : 2.35:1
    Frame rate                       : 29.970 fps
    Color space                      : YUV
    Chroma subsampling               : 4:2:0
    Bit depth                        : 8 bits
    Scan type                        : Progressive
    Compression mode                 : Lossy
    Bits/(Pixel*Frame)               : 0.132
    Stream size                      : 646 MiB (89%)
    Writing library                  : XviD 1.2.1 (UTC 2008-12-04)
    
    Audio
    ID                               : 1
    Format                           : MPEG Audio
    Format version                   : Version 1
    Format profile                   : Layer 2
    Codec ID                         : 50
    Duration                         : 2h 30mn
    Bit rate mode                    : Constant
    Bit rate                         : 64.0 Kbps
    Channel(s)                       : 2 channels
    Sampling rate                    : 48.0 KHz
    Compression mode                 : Lossy
    Stream size                      : 69.0 MiB (10%)
    Alignment                        : Aligned on interleaves
    Interleave, duration             : 133 ms (4.00 video frames)
    Interleave, preload duration     : 216 ms
    Title                            : TamilRush.Com - TamilRush.Net

    Screenshots



    Whenever you share give credits to "Adhitya @ [Team TRN]"

    Code:
    http://www.megaupload.com/?d=YV9QXP3P
    http://www.megaupload.com/?d=FPFJLIQ8
    http://www.megaupload.com/?d=9UW2CTJL
    http://www.megaupload.com/?d=VA3UY1LJ
    Code:
    http://www.zshare.net/download/88405440b9e4bd10/
    http://www.zshare.net/download/8840290459913815/
    http://www.zshare.net/download/884048314838e602/
    http://www.zshare.net/download/88405542f598a108/
    Code:
    http://depositfiles.com/de/files/twz6cwi9u
    http://depositfiles.com/de/files/mfx7ff1ez
    http://depositfiles.com/de/files/3xi5icqlb
    http://depositfiles.com/de/files/dq56lv8m1

 

 

Posting Permissions

  • You may not post new threads
  • You may not post replies
  • You may not post attachments
  • You may not edit your posts
  •