Results 1 to 1 of 1
  1. #1
    Landed To DesiRulez www.desirulez.net
    Join Date
    Feb 2011
    Posts
    23

    T

    Default Aadu Puli [2011] [Sruthi - 1CD - x264 - AAC 5.1] - Single Links

    Follow us on Social Media








    Movie Title: Aadu Puli [2011]
    Cast: Aadhi, Poorna, Prabhu, Ravichandran, K R Vijaya
    Director: Vijay Prakash
    Music Director: Sundar C.Babu
    Production: Michael Rayappan
    Release Note: Superb family movie

    Release Log

    Code:
    Format                           : MPEG-4
    Format profile                   : Base Media
    Codec ID                         : isom
    File size                        : 747 MiB
    Duration                         : 2h 16mn
    Overall bit rate                 : 766 Kbps
    Encoded date                     : UTC 2011-03-25 17:03:21
    Tagged date                      : UTC 2011-03-25 17:03:21
    
    Video
    ID                               : 1
    Format                           : AVC
    Format/Info                      : Advanced Video Codec
    Format profile                   : [email protected]
    Format settings, CABAC           : Yes
    Format settings, ReFrames        : 4 frames
    Codec ID                         : avc1
    Codec ID/Info                    : Advanced Video Coding
    Duration                         : 2h 16mn
    Bit rate mode                    : Variable
    Bit rate                         : 699 Kbps
    Maximum bit rate                 : 4 295 Kbps
    Width                            : 608 pixels
    Height                           : 272 pixels
    Display aspect ratio             : 2.25:1
    Frame rate mode                  : Constant
    Frame rate                       : 29.970 fps
    Color space                      : YUV
    Chroma subsampling               : 4:2:0
    Bit depth                        : 8 bits
    Scan type                        : Progressive
    Bits/(Pixel*Frame)               : 0.141
    Stream size                      : 681 MiB (91%)
    Title                            : TamilRush.Com - TamilRush.Net
    Writing library                  : x264 core 114 r1913 5fd3dce
    Encoding settings                : cabac=1 / ref=3 / deblock=1:-1:-1 / analyse=0x3:0x113 / me=hex / subme=4 / psy=1 / psy_rd=0.00:0.00 / mixed_ref=1 / me_range=16 / chroma_me=1 / trellis=0 / 8x8dct=1 / cqm=0 / deadzone=21,11 / fast_pskip=1 / chroma_qp_offset=0 / threads=3 / sliced_threads=0 / nr=0 / decimate=1 / interlaced=0 / constrained_intra=0 / bframes=16 / b_pyramid=2 / b_adapt=1 / b_bias=0 / direct=3 / weightb=1 / open_gop=0 / weightp=2 / keyint=250 / keyint_min=25 / scenecut=40 / intra_refresh=0 / rc_lookahead=40 / rc=2pass / mbtree=1 / bitrate=699 / ratetol=1.0 / qcomp=0.60 / qpmin=10 / qpmax=51 / qpstep=4 / cplxblur=20.0 / qblur=0.5 / ip_ratio=1.40 / aq=1:1.00
    Encoded date                     : UTC 2011-03-25 14:28:13
    Tagged date                      : UTC 2011-03-25 17:04:12
    
    Audio
    ID                               : 2
    Format                           : AAC
    Format/Info                      : Advanced Audio Codec
    Format profile                   : HE-AAC / LC
    Codec ID                         : 40
    Duration                         : 2h 16mn
    Bit rate mode                    : Variable
    Bit rate                         : 63.2 Kbps
    Maximum bit rate                 : 79.2 Kbps
    Channel(s)                       : 6 channels
    Channel positions                : Front: L C R, Side: L R, LFE
    Sampling rate                    : 48.0 KHz / 24.0 KHz
    Compression mode                 : Lossy
    Stream size                      : 61.6 MiB (8%)
    Title                            : TamilRush.Com - TamilRush.Net
    Encoded date                     : UTC 2011-03-25 17:04:08
    Tagged date                      : UTC 2011-03-25 17:04:12

    Screenshots




    Code:
    http://www.megaupload.com/?d=U5QXRBT5
    Code:
    http://depositfiles.com/de/files/v4bu1l0q3
    Whenever you share give credits to "Adhitya @ [Team TRN]"

 

 

Posting Permissions

  • You may not post new threads
  • You may not post replies
  • You may not post attachments
  • You may not edit your posts
  •