Results 1 to 1 of 1
  1. #1
    Hot Member www.desirulez.net
    Join Date
    Sep 2010
    Posts
    1,427

    T

    Arrow Yutham Sei (2011) - 1 CD - Sruthi DVD Rip - X264 - AAC [5.1 Dolby Digital Audio]

    Follow us on Social Media









    Rip Info::--
    Code:
    Format                           : MPEG-4
    Format profile                   : Base Media
    Codec ID                         : isom
    File size                        : 734 MiB
    Duration                         : 2h 23mn
    Overall bit rate                 : 716 Kbps
    
    
    Video
    ID                               : 1
    Format                           : AVC
    Format/Info                      : Advanced Video Codec
    Format profile                   : [email protected]
    Format settings, CABAC           : Yes
    Format settings, ReFrames        : 4 frames
    Codec ID                         : avc1
    Codec ID/Info                    : Advanced Video Coding
    Duration                         : 2h 23mn
    Bit rate mode                    : Variable
    Bit rate                         : 649 Kbps
    Maximum bit rate                 : 4 124 Kbps
    Width                            : 608 pixels
    Height                           : 272 pixels
    Display aspect ratio             : 2.25:1
    Frame rate mode                  : Constant
    Frame rate                       : 29.970 fps
    Color space                      : YUV
    Chroma subsampling               : 4:2:0
    Bit depth                        : 8 bits
    Scan type                        : Progressive
    Bits/(Pixel*Frame)               : 0.131
    Stream size                      : 665 MiB (91%)
    
    
    Audio
    ID                               : 2
    Format                           : AAC
    Format/Info                      : Advanced Audio Codec
    Format profile                   : HE-AAC / LC
    Codec ID                         : 40
    Duration                         : 2h 23mn
    Bit rate mode                    : Variable
    Bit rate                         : 63.3 Kbps
    Maximum bit rate                 : 72.5 Kbps
    Channel(s)                       : 6 channels
    Channel positions                : Front: L C R, Side: L R, LFE
    Sampling rate                    : 48.0 KHz / 24.0 KHz
    Compression mode                 : Lossy
    Stream size                      : 64.9 MiB (9%)
    Credits::-- TRN
    Uploader::-- Team SD








    Download Links::--
    Code:
    http://www.fileserve.com/file/vNNsupG
    http://www.fileserve.com/file/v4gU4pp
    http://www.fileserve.com/file/YfPFtH8
    http://www.fileserve.com/file/Cd4KQvh
    
    http://filekeen.com/rt8wowwo64sq/Ytm_Sei_(2011)_-_1_CD_-_Sruthi_DVD_Rip_-_X264_-_5.1_Dolby_Digital_Audio_-_AAC_-_Team_SD.mp4.001.html
    http://filekeen.com/1t7thz8tcmmu/Ytm_Sei_(2011)_-_1_CD_-_Sruthi_DVD_Rip_-_X264_-_5.1_Dolby_Digital_Audio_-_AAC_-_Team_SD.mp4.002.html
    http://filekeen.com/jv0xbeqiip4q/Ytm_Sei_(2011)_-_1_CD_-_Sruthi_DVD_Rip_-_X264_-_5.1_Dolby_Digital_Audio_-_AAC_-_Team_SD.mp4.003.html
    http://filekeen.com/kfx3a3cnheso/Ytm_Sei_(2011)_-_1_CD_-_Sruthi_DVD_Rip_-_X264_-_5.1_Dolby_Digital_Audio_-_AAC_-_Team_SD.mp4.004.html
    All Links Are Interchangeable Join Them Using HJ Split

    Single Links::--
    Code:
    http://www.fileserve.com/file/QhRSHqf
    
    http://filekeen.com/u7rl1ww6ligp/Ytm_Sei_(2011)_-_1_CD_-_Sruthi_DVD_Rip_-_X264_-_5.1_Dolby_Digital_Audio_-_AAC_-_Team_SD.mp4.html
    
    http://www.duckload.com/download/4017364/Ytm_Sei_2011_-_1_CD_-_Sruthi_DVD_Rip_-_X264_-_5.1_Dolby_Digital_Audio_-_AAC_-_Team_SD.mp4

 

 

Posting Permissions

  • You may not post new threads
  • You may not post replies
  • You may not post attachments
  • You may not edit your posts
  •