Results 1 to 1 of 1
  1. #1
    shawn rebecca
    Guest

    Exclamation The.Tonight.Show.With.Jay.Leno.2011.03.24.Jon.Jone s.HDTV.XviD-JR

    Follow us on Social Media







    The.Tonight.Show.With.Jay.Leno.2011.03.24.Jon.Jones.HDTV.XviD-JR

    Join Jon Jones on the Jay Leno on Thursday March 24th.


    ___________________________________________________


    Format : AVI
    Format/Info : Audio Video Interleave
    File size : 94.4 MiB
    Duration : 8mn 53s
    Overall bit rate : 1 485 Kbps
    Director : created.with.SUPER(C).v2011.bld.46
    Writing application : SUPER(C) - by eRightSoft

    Video
    ID : 0
    Format : MPEG-4 Visual
    Format profile : Advanced [email protected]
    Format settings, BVOP : 2
    Format settings, QPel : No
    Format settings, GMC : No warppoints
    Format settings, Matrix : Default (MPEG)
    Codec ID : XVID
    Codec ID/Hint : XviD
    Duration : 8mn 53s
    Bit rate : 1 279 Kbps
    Width : 624 pixels
    Height : 352 pixels
    Display aspect ratio : 16:9
    Frame rate : 29.970 fps
    Color space : YUV
    Chroma subsampling : 4:2:0
    Bit depth : 8 bits
    Scan type : Progressive
    Compression mode : Lossy
    Bits/(Pixel*Frame) : 0.194
    Stream size : 81.3 MiB (86%)
    Writing library : XviD 1.1.2 (UTC 2006-11-01)

    Audio
    ID : 1
    Format : MPEG Audio
    Format version : Version 1
    Format profile : Layer 3
    Codec ID : 55
    Codec ID/Hint : MP3
    Duration : 8mn 53s
    Bit rate mode : Constant
    Bit rate : 192 Kbps
    Channel(s) : 2 channels
    Sampling rate : 48.0 KHz
    Compression mode : Lossy
    Delay relative to video : 33ms
    Stream size : 12.2 MiB (13%)
    Alignment : Aligned on interleaves
    Interleave, duration : 24 ms (0.72 video frame)
    Interleave, preload duration : 504 ms
    Code:
    http://www.fileserve.com/file/mp67bvj/The.Tonight.Show.With.Jay.Leno.2011.03.24.Jon.Jones.HDTV.XviD-JR.avi

 

 

Posting Permissions

  • You may not post new threads
  • You may not post replies
  • You may not post attachments
  • You may not edit your posts
  •