Results 1 to 1 of 1
  1. #1
    dR Dazzler www.desirulez.net
    Join Date
    Mar 2009
    Posts
    1,518

    T

    Default WWE Smackdown 2011.03.25 HDTV x264 400Mb-EViLCREW

    Follow us on Social Media







    WWE Smackdown 2011.03.25 HDTV x264 400Mb-EViLCREW

    Code:
     Duration: 01:17:06.92, start: 0.000000, bitrate: 723 kb/s
        Stream #0.0(und): Video: h264, yuv420p, 704x400 [PAR 1:1 DAR 44:25], 591 kb/s, 25 fps, 25 tbr, 90k tbn, 180k tbc
        Stream #0.1(und): Audio: aac, 48000 Hz, stereo, s16, 127 kb/s
        Stream #0.2(eng): Subtitle: tx3g / 0x67337874

    Code:
    http://www.fileserve.com/file/hAh9erY/WWE.Smackdown.2011.03.25.HDTV.x264-EViLCREW.mp4

    Code:
    http://bitshare.com/files/5vvte3qe/WWE.Smackdown.2011.03.25.HDTV.x264-EViLCREW.mp4.html
    Code:
    http://www.usershare.net/da6qmiqlt6jv/WWE.Smackdown.2011.03.25.HDTV.x264-EViLCREW.mp4
    Code:
    http://www.filesonic.com/file/347602094/WWE.Smackdown.2011.03.25.HDTV.x264-EViLCREW.mp4

 

 

Posting Permissions

  • You may not post new threads
  • You may not post replies
  • You may not post attachments
  • You may not edit your posts
  •