Results 1 to 1 of 1
  1. #1
    dR Contributor www.desirulez.net
    Join Date
    Jun 2010
    Location
    India
    Posts
    2,470

    T

    Default [MULTI+MU] UFC.128.Shogun.vs.Jones.PPV.720p.HDTV.x264-XS

    Follow us on Social Media







    UFC.128.Shogun.vs.Jones.PPV.720p.HDTV.x264-XS



    Code:
    General Information
    Format : Matroska
    File size : 5.20 GiB
    Duration : 2h 56mn
    Overall bit rate : 4 206 Kbps
    Writing application : Lavf51.12.1
    Writing library : Lavf51.12.1
    Video
    ID : 1
    Format : AVC
    Format/Info : Advanced Video Codec
    Format profile : [email protected]
    Format settings, CABAC : No
    Format settings, ReFrames : 1 frame
    Muxing mode : Container [email protected]
    Codec ID : V_MPEG4/ISO/AVC
    Duration : 2h 56mn
    Bit rate : 3 930 Kbps
    Width : 1 280 pixels
    Height : 720 pixels
    Display aspect ratio : 16:9
    Frame rate : 29.970 fps
    Color space : YUV
    Chroma subsampling : 4:2:0
    Bit depth : 8 bits
    Scan type : Progressive
    Bits/(Pixel*Frame) : 0.142
    Stream size : 4.86 GiB (93%)
    Language : English
    Audio
    ID : 2
    Format : AC-3
    Format/Info : Audio Coding 3
    Mode extension : CM (complete main)
    Codec ID : A_AC3
    Duration : 2h 56mn
    Bit rate mode : Constant
    Bit rate : 192 Kbps
    Channel(s) : 2 channels
    Channel positions : Front: L R
    Sampling rate : 48.0 KHz
    Bit depth : 16 bits
    Stream size : 243 MiB (5%)
    Language : English


    1 Link Download

    Code:
    http://www.fileserve.com/file/KYjdJhd/UFC.128.Shogun.vs.Jones.PPV.720p.HDTV.x264-XS.mkv
    Code:
    http://turbobit.net/71q3fctuo7g4/UFC.128.Shogun.vs.Jones.PPV.720p.HDTV.x264-XS.mkv.html



    1 GB Parts

    Code:
    http://www.fileserve.com/file/Q5U5nMD/UFC.128.Shogun.vs.Jones.PPV.720p.HDTV.x264-XS.part1.rar
    http://www.fileserve.com/file/wxSPCZG/UFC.128.Shogun.vs.Jones.PPV.720p.HDTV.x264-XS.part2.rar
    http://www.fileserve.com/file/sZk2sC9/UFC.128.Shogun.vs.Jones.PPV.720p.HDTV.x264-XS.part3.rar
    http://www.fileserve.com/file/4tjrpRH/UFC.128.Shogun.vs.Jones.PPV.720p.HDTV.x264-XS.part4.rar
    http://www.fileserve.com/file/CrhggXK/UFC.128.Shogun.vs.Jones.PPV.720p.HDTV.x264-XS.part5.rar
    http://www.fileserve.com/file/GGqKtmX/UFC.128.Shogun.vs.Jones.PPV.720p.HDTV.x264-XS.part6.rar
    Code:
    http://www.megaupload.com/?d=CBS4MXX6 
    http://www.megaupload.com/?d=7BH5NLSS 
    http://www.megaupload.com/?d=YSRC1DT0 
    http://www.megaupload.com/?d=DRYV8T7Q 
    http://www.megaupload.com/?d=Z7NFRTI7 
    http://www.megaupload.com/?d=7WCLJ97Z
    Code:
    http://depositfiles.com/en/files/rkxqoeos2 
    http://depositfiles.com/en/files/ttuy9i65o 
    http://depositfiles.com/en/files/ctecawqbp 
    http://depositfiles.com/en/files/qivslqnvs 
    http://depositfiles.com/en/files/puurhxjhd 
    http://depositfiles.com/en/files/ug0cgxj2p
    Last edited by Ash; 03-21-2011 at 12:32 AM.

 

 

Posting Permissions

  • You may not post new threads
  • You may not post replies
  • You may not post attachments
  • You may not edit your posts
  •