Results 1 to 1 of 1
  1. #1
    Administrators www.desirulez.net
    Join Date
    Mar 2010
    Location
    Sea Side
    Posts
    9,872

    T

    Default The Last Airbender 2010-460Mb-Deadman

    Follow us on Social Media







    The Last Airbender 2010-460MB-DeadMan Team EXD|ARG



    INFO:-

    Format : AVI
    Format/Info : Audio Video Interleave
    File size : 460 MiB
    Duration : 1h 38mn
    Overall bit rate : 650 Kbps

    Video
    ID : 0
    Format : xvid
    Codec ID : xvid
    Duration : 1h 38mn
    Bit rate : 512 Kbps
    Width : 640 pixels
    Height : 272 pixels
    Display aspect ratio : 2.35:1
    Frame rate : 25.000 fps
    Bits/(Pixel*Frame) : 0.118
    Stream size : 362 MiB (79%)

    Audio
    ID : 1
    Format : AC-3
    Format/Info : Audio Coding 3
    Mode extension : CM (complete main)
    Codec ID : 2000
    Duration : 1h 38mn
    Bit rate mode : Constant
    Bit rate : 128 Kbps
    Channel(s) : 2 channels
    Channel positions : Front: L R
    Sampling rate : 44.1 KHz
    Bit depth : 16 bits
    Compression mode : Lossy
    Stream size : 90.6 MiB (20%)
    Alignment : Aligned on interleaves
    Interleave, duration : 35 ms (0.87 video frame)



    SCREENSHOT:-







    Sample in Torrent

    Extreme Seeding Started

    Give Credits To DeadMan @ Team ExD|ArG wherever u share this Rip

    Thnx to Source Provider

    Download Link


    Code:
    http://www.duckload.com/dl/RsHD2
    Watch Online

    Code:
    http://www.duckload.com/play/BB20498F63BA70B3

 

 

Posting Permissions

  • You may not post new threads
  • You may not post replies
  • You may not post attachments
  • You may not edit your posts
  •