Results 1 to 1 of 1
  1. #1
    New Arrivals
    Join Date
    Mar 2011
    Posts
    8

    T

    Cool Gone_In_60_Seconds-_Brrip-720p-__Hindi

    Follow us on Social Media










    General
    Complete name : Gone_In_60_Seconds-_Brrip-720p-__Hindi.mkv
    Format : Matroska
    File size : 629 MiB
    Duration : 1h 57mn
    Overall bit rate : 745 Kbps
    Encoded date : UTC 2010-08-14 16:04:15
    Writing application : mkvmerge v4.0.0 ('The Stars were mine') built on Jun 6 2010 16:18:42
    Writing library : libebml v1.0.0 + libmatroska v1.0.0

    Video
    ID : 1
    Format : AVC
    Format/Info : Advanced Video Codec
    Format profile : [email protected]
    Format settings, CABAC : Yes
    Format settings, ReFrames : 5 frames
    Muxing mode : Container [email protected]
    Codec ID : V_MPEG4/ISO/AVC
    Duration : 1h 57mn
    Bit rate : 603 Kbps
    Nominal bit rate : 647 Kbps
    Width : 1 280 pixels
    Height : 544 pixels
    Display aspect ratio : 2.35:1
    Frame rate : 23.976 fps
    Resolution : 24 bits
    Colorimetry : 4:2:0
    Scan type : Progressive
    Bits/(Pixel*Frame) : 0.036
    Stream size : 508 MiB (81%)


    Audio
    ID : 2
    Format : AC-3
    Format/Info : Audio Coding 3
    Codec ID : A_AC3
    Duration : 1h 57mn
    Bit rate mode : Constant
    Bit rate : 128 Kbps
    Channel(s) : 6 channels
    Channel positions : Front: L C R, Surround: L R, LFE
    Sampling rate : 44.1 KHz
    Video delay : 14ms
    Stream size : 108 MiB (17%)











    Code:
    http://www.megaupload.com/?d=T5NGWLJO
    http://www.megaupload.com/?d=AAP33N0E
    http://www.megaupload.com/?d=TC1MAWHY
    http://www.megaupload.com/?d=3UXZ0JS7
    http://www.megaupload.com/?d=JDIPQRNX
    http://www.megaupload.com/?d=I57ZHS6G
    http://www.megaupload.com/?d=400DW41J

 

 

Posting Permissions

  • You may not post new threads
  • You may not post replies
  • You may not post attachments
  • You may not edit your posts
  •