Results 1 to 1 of 1
  1. #1
    Banned www.desirulez.net
    Join Date
    Oct 2010
    Posts
    43

    T

    Thumbs up Me Nahi Ho Tyatla 2007 1Cdrip Dvdrip X264 Mp3

    Follow us on Social Media










    Media Info -
    General
    Complete name : Me.Nahi.Ho.Tyatla [2007] - 1CDRip - DVDRip - x264 - MP3.mkv
    Format : Matroska
    File size : 695 MiB
    Duration : 1h 57mn
    Overall bit rate : 829 Kbps
    Writing application : mkvmerge v4.4.0 ('Die Wiederkehr') built on Oct 31 2010 21:52:48
    Writing library : libebml v1.0.0 + libmatroska v1.0.0

    Video
    ID : 1
    Format : AVC
    Format/Info : Advanced Video Codec
    Format profile : [email protected]
    Format settings, CABAC : Yes
    Format settings, ReFrames : 4 frames
    Muxing mode : Container [email protected]
    Codec ID : V_MPEG4/ISO/AVC
    Duration : 1h 57mn
    Bit rate : 717 Kbps
    Nominal bit rate : 736 Kbps
    Width : 720 pixels
    Height : 340 pixels
    Display aspect ratio : 2.2:1
    Frame rate mode : Variable
    Frame rate : 25.000 fps
    Resolution : 24 bits
    Colorimetry : 4:2:0
    Scan type : Progressive
    Bits/(Pixel*Frame) : 0.117
    Stream size : 600 MiB (86%)
    Writing library : x264 core 112
    Encoding settings : cabac=1 / ref=2 / deblock=1:0:0 / analyse=0x1:0x111 / me=hex / subme=6 / psy=1 / psy_rd=1.00:0.00 / mixed_ref=0 / me_range=16 / chroma_me=1 / trellis=0 / 8x8dct=0 / cqm=0 / deadzone=21,11 / fast_pskip=1 / chroma_qp_offset=-2 / threads=3 / sliced_threads=0 / nr=0 / decimate=1 / interlaced=0 / constrained_intra=0 / bframes=2 / b_pyramid=2 / b_adapt=1 / b_bias=0 / direct=1 / weightb=0 / open_gop=0 / weightp=2 / keyint=250 / keyint_min=25 / scenecut=40 / intra_refresh=0 / rc_lookahead=40 / rc=abr / mbtree=1 / bitrate=736 / ratetol=1.0 / qcomp=0.60 / qpmin=3 / qpmax=51 / qpstep=4 / ip_ratio=1.40 / aq=1:1.00
    colour_primaries : BT.601-6 525, BT.1358 525, BT.1700 NTSC, SMPTE 170M
    transfer_characteristics : BT.709-5, BT.1361
    matrix_coefficients : BT.601-6 525, BT.1358 525, BT.1700 NTSC, SMPTE 170M

    Audio
    ID : 2
    Format : MPEG Audio
    Format version : Version 1
    Format profile : Layer 3
    Codec ID : A_MPEG/L3
    Codec ID/Hint : MP3
    Duration : 1h 57mn
    Bit rate mode : Constant
    Bit rate : 96.0 Kbps
    Channel(s) : 2 channels
    Sampling rate : 44.1 KHz
    Resolution : 16 bits
    Video delay : 800ms
    Stream size : 80.4 MiB (12%)






    Code:
    http://www.fileserve.com/file/dQaua5s




 

 

Posting Permissions

  • You may not post new threads
  • You may not post replies
  • You may not post attachments
  • You may not edit your posts
  •