Results 1 to 1 of 1
  1. #1
    Super Member www.desirulez.net
    Join Date
    Oct 2010
    Posts
    181

    T

    Default Tinku Jiya 1080p BluRay hot and sexy x264 DTS [DDR].mkv

    Follow us on Social Media







    Tinku Jiya 1080p BluRay hot and sexy x264 DTS [DDR].mkv

    General

    Complete name : Tinku Jiya 1080p BluRay x264 DTS [DDR].mkv
    Format : Matroska
    File size : 265 MiB
    Duration : 2mn 51s
    Overall bit rate : 12.9 Mbps
    Encoded date : UTC 2011-03-14 22:04:15
    Writing application : mkvmerge v4.0.0 ('The Stars were mine') built on Jun 6 2010 16:18:42
    Writing library : libebml v1.0.0 + libmatroska v1.0.0

    Video
    ID : 1
    Format : AVC
    Format/Info : Advanced Video Codec
    Format profile : [email protected]
    Format settings, CABAC : Yes
    Format settings, ReFrames : 3 frames
    Codec ID : V_MPEG4/ISO/AVC
    Duration : 2mn 51s
    Bit rate mode : Variable
    Bit rate : 11.2 Mbps
    Maximum bit rate : 40.0 Mbps
    Width : 1 920 pixels
    Height : 816 pixels
    Display aspect ratio : 2.35:1
    Frame rate : 24.000 fps
    Color space : YUV
    Chroma subsampling : 4:2:0
    Bit depth : 8 bits
    Scan type : Progressive
    Bits/(Pixel*Frame) : 0.297
    Stream size : 228 MiB (86%)
    Language : English

    Audio
    ID : 2
    Format : DTS
    Format/Info : Digital Theater Systems
    Codec ID : A_DTS
    Duration : 2mn 51s
    Bit rate mode : Constant
    Bit rate : 1 510 Kbps
    Channel(s) : 6 channels
    Channel positions : Front: L C R, Side: L R, LFE
    Sampling rate : 48.0 KHz
    Bit depth : 24 bits
    Compression mode : Lossy
    Delay relative to video : 8ms
    Stream size : 30.9 MiB (12%)
    Language : Hindi

    Menu
    00:00:00.000 : en:00:11:00.792
    00:02:51.208 : en:00:13:52.000








    Code:
    http://www.fileserve.com/file/yYQbTXe

 

 

Posting Permissions

  • You may not post new threads
  • You may not post replies
  • You may not post attachments
  • You may not edit your posts
  •