Results 1 to 1 of 1
  1. #1
    Super Member www.desirulez.net
    Join Date
    Oct 2010
    Posts
    181

    T

    Default Sting - Desert Rose 720p HD.mkv

    Follow us on Social Media







    Sting - Desert Rose 720p HD.mkv
    General

    Complete name : Sting - Desert Rose 720p.mkv
    Format : Matroska
    File size : 83.1 MiB
    Duration : 4mn 43s
    Overall bit rate : 2 456 Kbps
    Encoded date : UTC 2009-08-14 17:43:22
    Writing application : mkvmerge v2.2.0 ('Turn It On Again') built on Jul 1 2008 15:44:46
    Writing library : libebml v0.7.7 + libmatroska v0.8.1
    Video
    ID : 1
    Format : AVC
    Format/Info : Advanced Video Codec
    Format profile : [email protected]
    Format settings, CABAC : Yes
    Format settings, ReFrames : 5 frames
    Codec ID : V_MPEG4/ISO/AVC
    Duration : 4mn 43s
    Bit rate : 2 293 Kbps
    Width : 1 280 pixels
    Height : 720 pixels
    Display aspect ratio : 16:9
    Frame rate : 23.976 fps
    Color space : YUV
    Chroma subsampling : 4:2:0
    Bit depth : 8 bits
    Scan type : Progressive
    Bits/(Pixel*Frame) : 0.104
    Stream size : 76.1 MiB (91%)
    Writing library : x264 core 60 r0+892 ad1d7a4
    Encoding settings : cabac=1
    Audio
    ID : 2
    Format : Vorbis
    Format settings, Floor : 1
    Codec ID : A_VORBIS
    Duration : 4mn 43s
    Bit rate mode : Constant
    Bit rate : 160 Kbps
    Channel(s) : 2 channels
    Sampling rate : 48.0 KHz
    Compression mode : Lossy
    Delay relative to video : -83ms
    Stream size : 5.42 MiB (7%)
    Writing library : libVorbis 1.2 (UTC 2007-06-22)

    Code:
    http://www.fileserve.com/file/QNDcS5W

 

 

Posting Permissions

  • You may not post new threads
  • You may not post replies
  • You may not post attachments
  • You may not edit your posts
  •