Results 1 to 1 of 1
  1. #1
    Super Member www.desirulez.net
    Join Date
    Oct 2010
    Posts
    181

    T

    Default Dan Balan - Chica Bomb(Full HD 1080p hotest( mkv)

    Follow us on Social Media







    Dan Balan - Chica Bomb(Full HD 1080p hotest( mkv)
    General

    Complete name : Dan Balan - Chica Bomb 1080p.mkv
    Format : Matroska
    File size : 240 MiB
    Duration : 3mn 34s
    Overall bit rate : 9 382 Kbps
    Encoded date : UTC 2009-12-06 21:02:50
    Writing application : mkvmerge v2.9.9 ('Tutu') built on Nov 25 2009 21:13:32
    Writing library : libebml v0.7.9 + libmatroska v0.8.1

    Video
    ID : 1
    Format : AVC
    Format/Info : Advanced Video Codec
    Format profile : [email protected]
    Format settings, CABAC : Yes
    Format settings, ReFrames : 3 frames
    Codec ID : V_MPEG4/ISO/AVC
    Duration : 3mn 34s
    Bit rate mode : Variable
    Bit rate : 8 811 Kbps
    Maximum bit rate : 40.0 Mbps
    Width : 1 920 pixels
    Height : 1 080 pixels
    Display aspect ratio : 16:9
    Frame rate : 25.000 fps
    Color space : YUV
    Chroma subsampling : 4:2:0
    Bit depth : 8 bits
    Scan type : Progressive
    Bits/(Pixel*Frame) : 0.170
    Stream size : 225 MiB (94%)
    Title : Dan Balan - Chica Bomb Rip Arapkadri
    Language : English

    Audio
    ID : 2
    Format : DTS
    Format/Info : Digital Theater Systems
    Codec ID : A_DTS
    Duration : 3mn 34s
    Bit rate mode : Constant
    Bit rate : 384 Kbps
    Channel(s) : 2 channels
    Channel positions : Front: L R
    Sampling rate : 48.0 KHz
    Bit depth : 24 bits
    Compression mode : Lossy
    Stream size : 9.81 MiB (4%)
    Title : Dts 2,0
    Language : English







    Code:
    http://www.fileserve.com/file/npV58xr

 

 

Posting Permissions

  • You may not post new threads
  • You may not post replies
  • You may not post attachments
  • You may not edit your posts
  •